<?xml version="1.0" standalone="no"?>
<!DOCTYPE svg PUBLIC "-//W3C//DTD SVG 1.1//EN" "http://www.w3.org/Graphics/SVG/1.1/DTD/svg11.dtd" >
<svg xmlns="http://www.w3.org/2000/svg" xmlns:xlink="http://www.w3.org/1999/xlink" version="1.1">
<metadata>
Created by FontForge 20201107 at Thu Jan 23 13:03:03 2020
 By 
Copyright (c) 2012 by Fontfabric. All rights reserved.
</metadata>
<defs>
<font id="Nexa-ExtraLight" horiz-adv-x="596" >
  <font-face 
    font-family="Nexa Extra Light"
    font-weight="100"
    font-stretch="normal"
    units-per-em="1000"
    panose-1="0 0 2 0 0 0 0 0 0 0"
    ascent="800"
    descent="-200"
    x-height="494"
    cap-height="700"
    bbox="-454 -298 1126 939"
    underline-thickness="50"
    underline-position="-100"
    unicode-range="U+000D-FB02"
  />
<missing-glyph horiz-adv-x="648" 
d="M37 700h538v-700h-538v700zM302 215q0 48 17.5 69t69.5 34q50 14 73.5 45t23.5 83q0 66 -47.5 103t-132.5 37q-83 0 -131 -37t-48 -102h30q0 52 39.5 81.5t109.5 29.5q72 0 111 -29.5t39 -82.5q0 -42 -17.5 -65.5t-56.5 -34.5q-45 -12 -68 -26.5t-33 -38.5t-10 -65v-24
h31v23zM306 104.5q7 6.5 7 16.5q0 11 -7 17.5t-18 6.5t-18 -6.5t-7 -17.5q0 -10 7 -16.5t18 -6.5t18 6.5z" />
    <glyph glyph-name="fi" unicode="fi" horiz-adv-x="567" 
d="M484 0h-42v455h-265v-455h-42v455h-101v39h101v54q0 164 143 164q56 0 95 -31l-21 -31q-31 23 -74 23q-50 0 -75.5 -29t-25.5 -96v-54h307v-494zM490.5 675q10.5 -11 10.5 -27t-10.5 -26.5t-27.5 -10.5q-16 0 -26.5 10.5t-10.5 26.5t10.5 27t26.5 11q17 0 27.5 -11z" />
    <glyph glyph-name="fl" unicode="fl" horiz-adv-x="570" 
d="M488 700v-700h-42v631q-60 42 -133 42q-136 0 -136 -137v-42h166v-39h-166v-455h-42v455h-101v39h101v44q0 83 46.5 128.5t128.5 45.5q73 0 136 -36v24h42z" />
    <glyph glyph-name="f_f" unicode="ff" horiz-adv-x="675" 
d="M524.5 649q-25.5 -29 -25.5 -96v-59h165v-39h-165v-455h-42v455h-280v-455h-42v455h-101v39h101v34q0 76 33.5 120t108.5 44q55 0 99 -28l-22 -31q-36 20 -77 20q-50 0 -75 -29t-25 -96v-34h280v59q0 164 142 164q58 0 99 -34l-22 -30q-32 25 -76 25q-50 0 -75.5 -29z
" />
    <glyph glyph-name=".notdef" horiz-adv-x="648" 
d="M37 700h538v-700h-538v700zM302 215q0 48 17.5 69t69.5 34q50 14 73.5 45t23.5 83q0 66 -47.5 103t-132.5 37q-83 0 -131 -37t-48 -102h30q0 52 39.5 81.5t109.5 29.5q72 0 111 -29.5t39 -82.5q0 -42 -17.5 -65.5t-56.5 -34.5q-45 -12 -68 -26.5t-33 -38.5t-10 -65v-24
h31v23zM306 104.5q7 6.5 7 16.5q0 11 -7 17.5t-18 6.5t-18 -6.5t-7 -17.5q0 -10 7 -16.5t18 -6.5t18 6.5z" />
    <glyph glyph-name="uni0000" horiz-adv-x="600" 
 />
    <glyph glyph-name="uni0000" horiz-adv-x="600" 
 />
    <glyph glyph-name="nonmarkingreturn" unicode="&#xd;" horiz-adv-x="347" 
 />
    <glyph glyph-name="space" unicode=" " horiz-adv-x="267" 
 />
    <glyph glyph-name="exclam" unicode="!" horiz-adv-x="233" 
d="M95 700h43l-1 -544h-41zM92.5 3.5q-9.5 9.5 -9.5 23.5q0 15 9.5 24.5t24.5 9.5q14 0 24 -9.5t10 -24.5q0 -14 -10 -23.5t-24 -9.5q-15 0 -24.5 9.5z" />
    <glyph glyph-name="quotedbl" unicode="&#x22;" horiz-adv-x="329" 
d="M77 704h38v-255h-38v255zM213 704h38v-255h-38v255z" />
    <glyph glyph-name="numbersign" unicode="#" horiz-adv-x="624" 
d="M587 499h-101l-73 -292h96v-40h-105l-42 -167h-43l41 167h-199l-41 -167h-44l41 167h-79v40h89l72 292h-83v40h93l40 161h44l-40 -161h200l40 161h43l-40 -161h91v-40zM371 207l73 293h-201l-73 -293h201z" />
    <glyph glyph-name="dollar" unicode="$" horiz-adv-x="655" 
d="M538.5 44.5q-67.5 -50.5 -184.5 -55.5v-94h-42v95q-80 4 -151 39t-111 90l30 30q34 -52 105 -85t148 -33q106 0 167.5 39.5t61.5 107.5q0 43 -21.5 71t-72 48t-144.5 38q-96 19 -151.5 44t-80.5 61t-25 90q0 52 30.5 92t85.5 63.5t128 26.5v91h42v-92q69 -4 126.5 -29
t97.5 -70l-28 -31q-38 43 -95.5 66.5t-125.5 23.5q-99 0 -158.5 -38.5t-59.5 -102.5q0 -42 21 -69.5t69 -47t133 -36.5q105 -21 163.5 -46t84 -61t25.5 -91q0 -84 -67.5 -134.5z" />
    <glyph glyph-name="percent" unicode="%" horiz-adv-x="768" 
d="M82 453q-42 41 -42 106t42 106t109 41t109.5 -41t42.5 -106t-42.5 -106t-109.5 -41t-109 41zM584 700h45l-445 -700h-45zM273 479q32 31 32 80t-32 80t-82 31t-81.5 -31t-31.5 -80t31.5 -80t81.5 -31t82 31zM467.5 36q-42.5 41 -42.5 106t42.5 106t109.5 41t109 -41
t42 -106t-42 -106t-109 -41t-109.5 41zM658.5 62q31.5 31 31.5 80t-31.5 79.5t-81.5 30.5t-82 -30.5t-32 -79.5t32 -80t82 -31t81.5 31z" />
    <glyph glyph-name="ampersand" unicode="&#x26;" horiz-adv-x="661" 
d="M613 -7l-105 104q-47 -52 -106 -79t-124 -27t-115 21.5t-78 61t-28 91.5q0 63 45 117.5t124 93.5q-45 48 -64.5 88t-19.5 85q0 46 24 83t66.5 57.5t95.5 20.5q69 0 114 -41t45 -104q0 -69 -48.5 -112.5t-141.5 -85.5l207 -206q29 44 47.5 96.5t20.5 91.5l40 -6
q-5 -55 -26 -109.5t-53 -101.5l111 -110zM225 635q-40 -34 -40 -88q0 -36 18 -70t66 -82q86 40 130 77t44 92q0 47 -32 76t-83 29q-63 0 -103 -34zM387.5 55q51.5 24 91.5 71l-224 221q-72 -31 -113 -78.5t-41 -101.5q0 -63 48.5 -99.5t129.5 -36.5q57 0 108.5 24z" />
    <glyph glyph-name="quotesingle" unicode="'" horiz-adv-x="193" 
d="M77 704h38v-255h-38v255z" />
    <glyph glyph-name="parenleft" unicode="(" horiz-adv-x="318" 
d="M109 42q-58 118 -58 256t58 256t160 185l22 -34q-95 -67 -146.5 -173t-51.5 -234t51.5 -234t146.5 -173l-22 -34q-102 67 -160 185z" />
    <glyph glyph-name="parenright" unicode=")" horiz-adv-x="318" 
d="M27 -109q95 67 146.5 173t51.5 234t-51.5 234t-146.5 173l22 34q102 -67 160 -185t58 -256t-58 -256t-160 -185z" />
    <glyph glyph-name="asterisk" unicode="*" horiz-adv-x="343" 
d="M280 614l-85 -23l54 -70l-29 -21l-50 73l-53 -73l-29 21l56 70l-78 23l10 31l77 -23l-1 78h36l-2 -80l84 25z" />
    <glyph glyph-name="plus" unicode="+" horiz-adv-x="545" 
d="M471 363v-41h-177v-181h-42v181h-178v41h178v175h42v-175h177z" />
    <glyph glyph-name="comma" unicode="," horiz-adv-x="212" 
d="M130.5 51.5q9.5 -9.5 9.5 -24.5t-8.5 -44.5t-31.5 -91.5h-34l31 105q-11 2 -18 11t-7 20q0 15 10 24.5t24 9.5q15 0 24.5 -9.5z" />
    <glyph glyph-name="hyphen" unicode="-" horiz-adv-x="497" 
d="M74 308h348v-40h-348v40z" />
    <glyph glyph-name="period" unicode="." horiz-adv-x="212" 
d="M82 3.5q-10 9.5 -10 23.5q0 15 10 24.5t24 9.5q15 0 24.5 -9.5t9.5 -24.5q0 -14 -9.5 -23.5t-24.5 -9.5q-14 0 -24 9.5z" />
    <glyph glyph-name="slash" unicode="/" horiz-adv-x="477" 
d="M405 758h44l-377 -840h-44z" />
    <glyph glyph-name="zero" unicode="0" horiz-adv-x="708" 
d="M207 26.5q-65 33.5 -101 93t-36 135.5v191q0 76 36 135.5t101 93t147 33.5t147 -33.5t101 -93t36 -135.5v-191q0 -76 -36 -135.5t-101 -93t-147 -33.5t-147 33.5zM479 63q55 28 85.5 78t30.5 114v191q0 64 -30.5 114t-85.5 78t-125 28t-125 -28t-85.5 -78t-30.5 -114
v-191q0 -64 30.5 -114t85.5 -78t125 -28t125 28z" />
    <glyph glyph-name="one" unicode="1" horiz-adv-x="395" 
d="M230 42h141v-42h-333v42h149v609l-133 -33v43l170 41h6v-660z" />
    <glyph glyph-name="two" unicode="2" horiz-adv-x="667" 
d="M110 42h491v-42h-534v157q0 92 70.5 142t198.5 50q108 0 165.5 40.5t57.5 117.5q0 74 -60.5 117.5t-162.5 43.5q-103 0 -162 -41t-60 -112h-43q0 59 32.5 103t92.5 67.5t140 23.5t140.5 -25t93 -70.5t32.5 -106.5q0 -96 -68.5 -148t-194.5 -52q-110 0 -169.5 -38.5
t-59.5 -111.5v-115z" />
    <glyph glyph-name="three" unicode="3" horiz-adv-x="661" 
d="M554 293.5q45 -50.5 45 -111.5q0 -89 -72.5 -140t-197.5 -51q-82 0 -143 23t-94 64.5t-33 96.5h43q0 -64 62.5 -103t166.5 -39q105 0 165 39.5t60 107.5q0 45 -29 81.5t-80 57.5t-115 21h-118v40h115q62 0 111 19t76.5 52.5t27.5 75.5q0 66 -57.5 103t-159.5 37
q-98 0 -156 -37.5t-58 -98.5h-43q0 53 31.5 93t90 62.5t135.5 22.5q120 0 190 -49t70 -133q0 -59 -40.5 -106t-103.5 -62q66 -15 111 -65.5z" />
    <glyph glyph-name="four" unicode="4" horiz-adv-x="640" 
d="M595 202v-42h-88v-160h-43v160h-431l-6 44l431 496h49v-498h88zM464 644l-385 -442h385v442z" />
    <glyph glyph-name="five" unicode="5" horiz-adv-x="656" 
d="M539.5 370q65.5 -57 65.5 -159q0 -64 -33.5 -113t-95 -75.5t-142.5 -26.5q-128 0 -199.5 51.5t-71.5 144.5h43q0 -73 59.5 -113.5t167.5 -40.5q105 0 167 47t62 126q0 84 -53 129t-153 45h-273v315h483v-42h-440v-231h230q118 0 183.5 -57z" />
    <glyph glyph-name="six" unicode="6" horiz-adv-x="694" 
d="M507.5 395q62.5 -27 97 -75.5t34.5 -112.5t-34.5 -112.5t-97.5 -75t-146 -26.5t-146 26.5t-97.5 75t-34.5 112.5v287q0 100 72.5 157.5t196.5 57.5q77 0 136.5 -21t94.5 -60.5t38 -92.5h-43q-4 60 -66.5 96t-160.5 36q-105 0 -165 -46t-60 -128v-168q79 97 237 97
q82 0 144.5 -27zM532 81q64 47 64 126t-64 126t-171 47t-171 -47t-64 -126t64 -126t171 -47t171 47z" />
    <glyph glyph-name="seven" unicode="7" horiz-adv-x="563" 
d="M31 700h519v-32l-386 -668h-50l381 658h-464v42z" />
    <glyph glyph-name="eight" unicode="8" horiz-adv-x="698" 
d="M588 298.5q45 -48.5 45 -112.5q0 -58 -35.5 -102.5t-100 -69t-148.5 -24.5t-148.5 24.5t-100 69t-35.5 102.5q0 64 45 112.5t115 64.5q-68 21 -105.5 64t-37.5 101q0 54 33.5 96t94 65t139.5 23t139.5 -23t94 -65t33.5 -96q0 -58 -37.5 -101t-105.5 -64q70 -16 115 -64.5
zM152.5 452q28.5 -33 80 -51.5t116.5 -18.5q66 0 117 18.5t79.5 51.5t28.5 75t-28.5 75t-79.5 51.5t-117 18.5q-65 0 -116.5 -18.5t-80 -51.5t-28.5 -75t28.5 -75zM475 50.5q55 19.5 85.5 55t30.5 81.5t-30.5 81t-85.5 55t-126 20t-126 -20t-85 -55t-30 -81t30 -81.5t85 -55
t126 -19.5t126 19.5z" />
    <glyph glyph-name="nine" unicode="9" horiz-adv-x="694" 
d="M479 682.5q63 -26.5 97.5 -75t34.5 -112.5v-284q0 -102 -74 -160t-201 -58q-115 0 -186.5 46.5t-77.5 127.5h44q3 -60 64 -96t157 -36q106 0 168.5 46.5t62.5 129.5v166q-81 -97 -237 -97q-82 0 -144.5 27t-97 75.5t-34.5 112.5t34.5 112.5t97.5 75t146 26.5t146 -26.5z
M504 369q64 47 64 126t-64 126t-171 47t-171 -47t-64 -126t64 -126t171 -47t171 47z" />
    <glyph glyph-name="colon" unicode=":" horiz-adv-x="212" 
d="M82 3.5q-10 9.5 -10 23.5q0 15 10 24.5t24 9.5q15 0 24.5 -9.5t9.5 -24.5q0 -14 -9.5 -23.5t-24.5 -9.5q-14 0 -24 9.5zM82 305.5q-10 9.5 -10 23.5q0 15 10 24.5t24 9.5q15 0 24.5 -9.5t9.5 -24.5q0 -14 -9.5 -23.5t-24.5 -9.5q-14 0 -24 9.5z" />
    <glyph glyph-name="semicolon" unicode=";" horiz-adv-x="212" 
d="M130.5 51.5q9.5 -9.5 9.5 -24.5t-8.5 -44.5t-31.5 -91.5h-34l31 105q-11 2 -18 11t-7 20q0 15 10 24.5t24 9.5q15 0 24.5 -9.5zM82 305.5q-10 9.5 -10 23.5q0 15 10 24.5t24 9.5q15 0 24.5 -9.5t9.5 -24.5q0 -14 -9.5 -23.5t-24.5 -9.5q-14 0 -24 9.5z" />
    <glyph glyph-name="less" unicode="&#x3c;" horiz-adv-x="359" 
d="M294 490l-199 -172l199 -173l-27 -30l-221 192v22l221 191z" />
    <glyph glyph-name="equal" unicode="=" horiz-adv-x="545" 
d="M74 436h396v-40h-396v40zM74 239h396v-40h-396v40z" />
    <glyph glyph-name="greater" unicode="&#x3e;" horiz-adv-x="359" 
d="M92 520l221 -191v-22l-221 -192l-27 30l199 173l-199 172z" />
    <glyph glyph-name="question" unicode="?" horiz-adv-x="588" 
d="M256.5 279q14.5 30 48.5 49.5t93 33.5q56 13 81 48.5t25 99.5q0 77 -55 118.5t-157 41.5t-157 -41.5t-55 -119.5h-43q0 96 67 149t189 53q120 0 187 -53t67 -148q0 -80 -33 -124.5t-106 -63.5q-51 -13 -77 -27t-36 -35t-10 -59v-45h-43v46q0 47 14.5 77zM239 3.5
q-10 9.5 -10 23.5q0 15 9.5 24.5t24.5 9.5t24.5 -9.5t9.5 -24.5q0 -14 -9.5 -23.5t-24.5 -9.5q-14 0 -24 9.5z" />
    <glyph glyph-name="at" unicode="@" horiz-adv-x="891" 
d="M666.5 579q90.5 -47 141 -132t50.5 -196q0 -70 -21 -118.5t-54.5 -72.5t-71.5 -24t-62.5 23t-32.5 63q-26 -43 -70.5 -69t-100.5 -26q-58 0 -104 27.5t-71.5 74.5t-25.5 105q0 57 25.5 103t71.5 72t104 26q55 0 100 -27t66 -68l3 85h37v-253q0 -96 63 -96q42 0 72 42
t30 132q0 101 -44 177.5t-125 117.5t-188 41q-104 0 -186 -44.5t-128 -124t-46 -180.5t44.5 -178t126.5 -119.5t189 -42.5q87 0 155 41l18 -36q-78 -45 -174 -45q-118 0 -209 47.5t-141.5 133.5t-50.5 198q0 114 51 202.5t142.5 138t208.5 49.5t207.5 -47zM530.5 88
q37.5 22 59 59.5t21.5 82.5q0 46 -21.5 84t-59 59.5t-82.5 21.5q-71 0 -116.5 -44.5t-45.5 -116.5q0 -48 21 -86.5t58 -60t83 -21.5q45 0 82.5 22z" />
    <glyph glyph-name="A" unicode="A" horiz-adv-x="736" 
d="M660 0l-79 176h-426l-79 -176h-48l314 700h52l314 -700h-48zM368 653l-195 -434h390z" />
    <glyph glyph-name="B" unicode="B" horiz-adv-x="695" 
d="M604 293q35 -45 35 -106q0 -87 -62 -137t-171 -50h-305v700h305q94 0 151 -49.5t57 -131.5q0 -56 -29 -100t-78 -61q62 -20 97 -65zM526.5 620q-44.5 38 -120.5 38h-261v-280h261q78 0 121.5 37t43.5 102t-44.5 103zM545.5 81q49.5 39 49.5 108q0 68 -50.5 107.5
t-136.5 39.5h-263v-294h263q88 0 137.5 39z" />
    <glyph glyph-name="C" unicode="C" horiz-adv-x="716" 
d="M228 34q-82 46 -127.5 128.5t-45.5 187.5t45.5 187.5t127 128.5t185.5 46q72 0 136 -27t113 -77l-30 -29q-44 44 -99.5 67.5t-118.5 23.5q-92 0 -164 -40.5t-111.5 -113t-39.5 -166.5t39.5 -166.5t111.5 -113t164 -40.5q63 0 120.5 23.5t102.5 67.5l29 -29
q-49 -51 -114 -77.5t-138 -26.5q-104 0 -186 46z" />
    <glyph glyph-name="D" unicode="D" horiz-adv-x="746" 
d="M520 655.5q81 -44.5 126 -124t45 -181.5t-45 -181.5t-126 -124t-185 -44.5h-234v700h234q104 0 185 -44.5zM497 82q71 39 110.5 109t39.5 159t-40 159t-111 109t-161 39h-190v-614h190q91 0 162 39z" />
    <glyph glyph-name="E" unicode="E" horiz-adv-x="653" 
d="M145 42h449v-42h-493v700h480v-42h-436v-283h415v-42h-415v-291z" />
    <glyph glyph-name="F" unicode="F" horiz-adv-x="615" 
d="M558 657h-413v-292h390v-42h-390v-323h-44v700h457v-43z" />
    <glyph glyph-name="G" unicode="G" horiz-adv-x="744" 
d="M678 360v-261q-54 -54 -121 -82t-143 -28q-105 0 -186.5 45.5t-127 127.5t-45.5 188t45.5 188t127.5 127.5t188 45.5q144 0 250 -104l-29 -31q-45 45 -101.5 69t-119.5 24q-93 0 -165 -40t-112 -112.5t-40 -166.5q0 -93 40 -165.5t111.5 -113t163.5 -40.5q63 0 121.5 23
t99.5 64v200h-252v42h295z" />
    <glyph glyph-name="H" unicode="H" horiz-adv-x="753" 
d="M608 700h44v-700h-44v338h-463v-338h-44v700h44v-320h463v320z" />
    <glyph glyph-name="I" unicode="I" horiz-adv-x="246" 
d="M101 700h44v-700h-44v700z" />
    <glyph glyph-name="J" unicode="J" horiz-adv-x="663" 
d="M570 700v-440q0 -80 -34 -141.5t-95.5 -95t-140.5 -33.5q-78 0 -139.5 34.5t-95.5 96t-34 140.5h42q0 -67 29 -119t80.5 -81t117.5 -29q67 0 118 28.5t79.5 80.5t28.5 120v396h-275v43h319z" />
    <glyph glyph-name="K" unicode="K" horiz-adv-x="584" 
d="M584 0h-62l-377 350v-350h-44v700h44v-322l348 322h61l-362 -335z" />
    <glyph glyph-name="L" unicode="L" horiz-adv-x="564" 
d="M101 700h44v-657h401v-43h-445v700z" />
    <glyph glyph-name="M" unicode="M" horiz-adv-x="906" 
d="M757 700h48v-700h-43v633l-303 -419h-11l-303 418v-632h-44v700h48l304 -421z" />
    <glyph glyph-name="N" unicode="N" horiz-adv-x="753" 
d="M609 700h43v-700h-46l-461 633v-633h-44v700h48l460 -631v631z" />
    <glyph glyph-name="O" unicode="O" horiz-adv-x="816" 
d="M225.5 34q-80.5 46 -125.5 128.5t-45 187.5t45 187.5t125.5 128.5t182.5 46t182.5 -46t125.5 -128.5t45 -187.5t-45 -187.5t-125.5 -128.5t-182.5 -46t-182.5 46zM567.5 70.5q70.5 40.5 110 113.5t39.5 166t-39.5 166t-110 113.5t-159.5 40.5t-159.5 -40.5t-110 -113.5
t-39.5 -166t39.5 -166t110 -113.5t159.5 -40.5t159.5 40.5z" />
    <glyph glyph-name="P" unicode="P" horiz-adv-x="668" 
d="M523.5 671q52.5 -29 80 -81t27.5 -119q0 -66 -27.5 -117.5t-80.5 -80.5t-125 -29h-253v-244h-44v700h297q73 0 125.5 -29zM538 337q50 51 50 135t-50 135t-141 51h-252v-372h252q91 0 141 51z" />
    <glyph glyph-name="Q" unicode="Q" horiz-adv-x="816" 
d="M758 -32l-113 105q-46 -41 -106.5 -63t-130.5 -22q-102 0 -182.5 46t-125.5 128.5t-45 187.5t45 187.5t125.5 128.5t182.5 46t182.5 -46t125.5 -128.5t45 -187.5q0 -73 -22 -135.5t-63 -110.5l113 -105zM567.5 70.5q70.5 40.5 110 113.5t39.5 166t-39.5 166t-110 113.5
t-159.5 40.5t-159.5 -40.5t-110 -113.5t-39.5 -166t39.5 -166t110 -113.5t159.5 -40.5t159.5 40.5z" />
    <glyph glyph-name="R" unicode="R" horiz-adv-x="697" 
d="M348 269h-203v-269h-44v700h303q68 0 119.5 -27t79.5 -76t28 -113t-28 -112.5t-79 -75.5t-119 -27l248 -269h-57zM537.5 610q-49.5 47 -133.5 47h-259v-346h259q84 0 133.5 47t49.5 126t-49.5 126z" />
    <glyph glyph-name="S" unicode="S" horiz-adv-x="655" 
d="M170 24.5q-77 35.5 -120 94.5l30 30q34 -52 105 -85t148 -33q106 0 167.5 39.5t61.5 107.5q0 43 -21.5 71t-72 48t-144.5 38q-96 19 -151.5 44t-80.5 61t-25 90t32.5 95.5t92 64t137.5 22.5q76 0 140 -25.5t108 -74.5l-28 -31q-38 43 -95.5 66.5t-125.5 23.5
q-99 0 -158.5 -38.5t-59.5 -102.5q0 -42 21 -69.5t69 -47t133 -36.5q105 -21 163.5 -46t84 -61t25.5 -91q0 -88 -73.5 -139t-199.5 -51q-86 0 -163 35.5z" />
    <glyph glyph-name="T" unicode="T" horiz-adv-x="589" 
d="M574 700v-43h-258v-657h-43v657h-258v43h559z" />
    <glyph glyph-name="U" unicode="U" horiz-adv-x="732" 
d="M224 24q-62 35 -96.5 98.5t-34.5 145.5v432h44v-432q0 -70 29 -123.5t81 -83.5t119 -30t119 30t81 83.5t29 123.5v432h44v-432q0 -82 -34.5 -145.5t-96.5 -98.5t-142 -35t-142 35z" />
    <glyph glyph-name="V" unicode="V" horiz-adv-x="692" 
d="M612 700h47l-288 -700h-51l-288 700h47l158 -383l109 -266z" />
    <glyph glyph-name="W" unicode="W" horiz-adv-x="1084" 
d="M998 700h47l-244 -700h-51l-110 337l-99 302l-100 -302l-112 -337h-51l-240 700h47l218 -646l213 646h50l210 -646l91 264z" />
    <glyph glyph-name="X" unicode="X" horiz-adv-x="599" 
d="M327 360l260 -360h-54l-234 326l-234 -326h-53l258 359l-238 341h53l95 -137l120 -170l119 170l95 137h53z" />
    <glyph glyph-name="Y" unicode="Y" horiz-adv-x="656" 
d="M625 700l-276 -421v-279h-44v279l-275 421h52l245 -378l245 378h53z" />
    <glyph glyph-name="Z" unicode="Z" horiz-adv-x="585" 
d="M550 700v-24l-464 -633h464v-43h-530v25l464 633h-428v42h494z" />
    <glyph glyph-name="bracketleft" unicode="[" horiz-adv-x="303" 
d="M93 724h175v-40h-133v-774h133v-40h-175v854z" />
    <glyph glyph-name="backslash" unicode="\" horiz-adv-x="477" 
d="M449 -82h-44l-377 840h45z" />
    <glyph glyph-name="bracketright" unicode="]" horiz-adv-x="304" 
d="M211 -130h-176v40h134v774h-134v40h176v-854z" />
    <glyph glyph-name="asciicircum" unicode="^" horiz-adv-x="569" 
d="M517 385h-49l-184 268l-184 -268h-48l216 315h31z" />
    <glyph glyph-name="underscore" unicode="_" horiz-adv-x="616" 
d="M74 -28h468v-41h-468v41z" />
    <glyph glyph-name="grave" unicode="`" horiz-adv-x="233" 
d="M132 579l-85 121h50l76 -121h-41z" />
    <glyph glyph-name="a" unicode="a" horiz-adv-x="632" 
d="M550 494v-494h-40l-1 110q-28 -55 -84.5 -86.5t-127.5 -31.5q-72 0 -128 32.5t-87.5 90.5t-31.5 132t31.5 132t87.5 90.5t128 32.5q71 0 127.5 -32t84.5 -87l1 111h40zM407.5 58q47.5 27 74 76t26.5 113t-26.5 113t-74 76t-107.5 27q-61 0 -108 -27t-73.5 -76t-26.5 -113
t26.5 -113t73.5 -76t108 -27q60 0 107.5 27z" />
    <glyph glyph-name="b" unicode="b" horiz-adv-x="632" 
d="M463.5 469.5q56.5 -32.5 88 -90.5t31.5 -132t-31.5 -132t-88 -90.5t-128.5 -32.5t-128.5 32t-83.5 86v-110h-40v700h42v-314q28 54 83.5 85t126.5 31q72 0 128.5 -32.5zM440.5 58q47.5 27 74 76t26.5 113t-26.5 113t-74 76t-107.5 27q-61 0 -108 -27t-73.5 -76
t-26.5 -113t26.5 -113t73.5 -76t108 -27q60 0 107.5 27z" />
    <glyph glyph-name="c" unicode="c" horiz-adv-x="529" 
d="M175.5 23.5q-58.5 32.5 -92 91t-33.5 132.5q0 76 33.5 134t91.5 90t131 32q103 0 176 -73l-28 -28q-29 31 -67.5 46t-81.5 15q-59 0 -107.5 -25.5t-77 -74.5t-28.5 -116q0 -65 28.5 -114t77.5 -75.5t108 -26.5q43 0 82.5 15.5t70.5 46.5l28 -30q-37 -35 -84 -53.5
t-97 -18.5q-72 0 -130.5 32.5z" />
    <glyph glyph-name="d" unicode="d" horiz-adv-x="633" 
d="M550 700v-700h-40l-1 109q-28 -54 -84.5 -85.5t-127.5 -31.5t-127.5 32.5t-88 90.5t-31.5 132t31.5 132t88 90.5t127.5 32.5t127 -31t84 -85v314h42zM407.5 58q47.5 27 74 76t26.5 113t-26.5 113t-74 76t-107.5 27q-61 0 -108 -27t-73.5 -76t-26.5 -113t26.5 -113
t73.5 -76t108 -27q60 0 107.5 27z" />
    <glyph glyph-name="e" unicode="e" horiz-adv-x="587" 
d="M428.5 472.5q56.5 -30.5 87 -85.5t30.5 -127q0 -19 -1 -29h-453q7 -93 63 -147t145 -54q55 0 105 22t77 58l30 -25q-35 -44 -91 -69.5t-121 -25.5q-72 0 -129 33t-89 91.5t-32 132.5t31.5 132t88 91t128.5 33q74 0 130.5 -30.5zM155 410.5q-56 -53.5 -63 -140.5h413
q0 57 -26.5 101t-73 68.5t-107.5 24.5q-87 0 -143 -53.5z" />
    <glyph glyph-name="f" unicode="f" horiz-adv-x="353" 
d="M202.5 644q-25.5 -29 -25.5 -96v-54h165v-39h-165v-455h-42v455h-101v39h101v54q0 164 142 164q58 0 99 -34l-22 -30q-32 25 -76 25q-50 0 -75.5 -29z" />
    <glyph glyph-name="g" unicode="g" horiz-adv-x="607" 
d="M511 -15.5q40 -42.5 40 -103.5q0 -53 -31 -93.5t-87 -63t-129 -22.5q-70 0 -125.5 25t-86 69.5t-30.5 100.5h42q0 -44 25.5 -79.5t71 -55.5t103.5 -20q93 0 149 38t56 101t-56 101t-149 38q-77 0 -134.5 29.5t-88.5 83.5t-31 127q0 68 33 123t91 86.5t129 31.5
q42 0 84 -12t70 -32l63 76l31 -24l-64 -76q38 -46 53.5 -84t15.5 -89q0 -77 -44 -137t-114 -79q73 -17 113 -59.5zM148.5 113.5q56.5 -53.5 155.5 -53.5q58 0 106 26.5t76 72.5t28 101q0 60 -26 105.5t-74 70.5t-110 25q-61 0 -109.5 -26t-75.5 -71.5t-27 -103.5
q0 -93 56.5 -146.5z" />
    <glyph glyph-name="h" unicode="h" horiz-adv-x="602" 
d="M470.5 444q55.5 -57 55.5 -159v-285h-42v283q0 86 -44 132t-125 46q-55 0 -98.5 -24.5t-67.5 -67t-24 -94.5v-275h-42v700h42v-302q29 48 79.5 75.5t112.5 27.5q98 0 153.5 -57z" />
    <glyph glyph-name="i" unicode="i" horiz-adv-x="207" 
d="M76.5 621.5q-10.5 10.5 -10.5 26.5t10.5 27t27.5 11q16 0 27 -11t11 -27t-11 -26.5t-27 -10.5q-17 0 -27.5 10.5zM83 494h42v-494h-42v494z" />
    <glyph glyph-name="j" unicode="j" horiz-adv-x="207" 
d="M76.5 621.5q-10.5 10.5 -10.5 26.5t10.5 27t27.5 11q16 0 27 -11t11 -27t-11 -26.5t-27 -10.5q-17 0 -27.5 10.5zM-95 -227l15 35q34 -21 75 -21q47 0 67.5 29t20.5 98v580h42v-580q0 -87 -31 -127t-99 -40q-42 0 -90 26z" />
    <glyph glyph-name="k" unicode="k" horiz-adv-x="461" 
d="M453 0h-60l-268 236v-236h-42v700h42v-433l241 227h57l-257 -242z" />
    <glyph glyph-name="l" unicode="l" horiz-adv-x="207" 
d="M83 700h42v-700h-42v700z" />
    <glyph glyph-name="m" unicode="m" horiz-adv-x="926" 
d="M798 444.5q52 -56.5 52 -156.5v-288h-42v286q0 84 -40 129.5t-114 45.5q-47 0 -85.5 -24t-60 -65.5t-21.5 -93.5v-278h-42v286q0 84 -39.5 129.5t-114.5 45.5q-47 0 -85 -24t-59.5 -65.5t-21.5 -93.5v-278h-42v494h40v-93q27 47 71.5 73.5t97.5 26.5q67 0 113.5 -31.5
t65.5 -90.5q26 57 74.5 89.5t109.5 32.5q91 0 143 -56.5z" />
    <glyph glyph-name="n" unicode="n" horiz-adv-x="602" 
d="M470.5 444q55.5 -57 55.5 -159v-285h-42v283q0 86 -44 132t-125 46q-55 0 -98.5 -24.5t-67.5 -67t-24 -94.5v-275h-42v494h40v-97q29 48 80 76t114 28q98 0 153.5 -57z" />
    <glyph glyph-name="o" unicode="o" horiz-adv-x="605" 
d="M172.5 24q-57.5 33 -90 91.5t-32.5 131.5t32.5 131.5t90 91.5t129.5 33q73 0 130.5 -33t90 -91.5t32.5 -131.5t-32.5 -131.5t-90 -91.5t-130.5 -33q-72 0 -129.5 33zM410 59q48 28 75.5 77.5t27.5 110.5t-27.5 110.5t-75.5 77.5t-108 28t-108 -28t-75 -77.5t-27 -110.5
t27 -110.5t75 -77.5t108 -28t108 28z" />
    <glyph glyph-name="p" unicode="p" horiz-adv-x="632" 
d="M463.5 469.5q56.5 -32.5 88 -90.5t31.5 -132t-31.5 -132t-88 -90.5t-128.5 -32.5q-71 0 -126.5 31t-83.5 85v-348h-42v734h40v-110q27 54 83.5 86t128.5 32t128.5 -32.5zM440.5 58q47.5 27 74 76t26.5 113t-26.5 113t-74 76t-107.5 27q-61 0 -108 -27t-73.5 -76
t-26.5 -113t26.5 -113t73.5 -76t108 -27q60 0 107.5 27z" />
    <glyph glyph-name="q" unicode="q" horiz-adv-x="633" 
d="M550 494v-734h-42v348q-28 -54 -84 -85t-127 -31q-72 0 -128 32.5t-87.5 90.5t-31.5 132t31.5 132t87.5 90.5t128 32.5q71 0 127.5 -31.5t84.5 -85.5l1 109h40zM407.5 58q47.5 27 74 76t26.5 113t-26.5 113t-74 76t-107.5 27q-61 0 -108 -27t-73.5 -76t-26.5 -113
t26.5 -113t73.5 -76t108 -27q60 0 107.5 27z" />
    <glyph glyph-name="r" unicode="r" horiz-adv-x="399" 
d="M394 472l-19 -36q-37 22 -83 22t-84.5 -27t-60.5 -74t-22 -103v-254h-42v494h40v-110q26 54 70.5 84.5t99.5 30.5q59 0 101 -27z" />
    <glyph glyph-name="s" unicode="s" horiz-adv-x="502" 
d="M131 16q-58 25 -90 64l26 28q31 -35 81 -56t108 -21q73 0 117 27.5t44 73.5q0 28 -15 46t-50.5 31t-102.5 26q-73 14 -114 30.5t-59 41t-18 62.5q0 62 54 98t146 36q59 0 104.5 -16t85.5 -49l-24 -30q-36 29 -74.5 42.5t-90.5 13.5q-76 0 -117.5 -25t-41.5 -70
q0 -27 14 -43.5t46.5 -28.5t94.5 -24q77 -14 120.5 -31.5t63 -44t19.5 -66.5q0 -63 -55.5 -101.5t-146.5 -38.5q-67 0 -125 25z" />
    <glyph glyph-name="t" unicode="t" horiz-adv-x="397" 
d="M378 18q-54 -27 -101 -27q-75 0 -105 39t-30 118v307h-106v39h106v146l42 4v-150h171v-39h-171v-307q0 -59 19 -89t74 -30q17 0 41 7t44 17z" />
    <glyph glyph-name="u" unicode="u" 
d="M513 494v-494h-40v99q-29 -49 -79 -77.5t-112 -28.5q-96 0 -151 57t-55 159v285h42v-283q0 -86 43.5 -132t123.5 -46q54 0 96.5 24.5t66 67t23.5 94.5v275h42z" />
    <glyph glyph-name="v" unicode="v" horiz-adv-x="539" 
d="M454 494h46l-208 -494h-46l-207 494h46l90 -217l94 -228l95 228z" />
    <glyph glyph-name="w" unicode="w" horiz-adv-x="816" 
d="M730 494h45l-171 -494h-45l-49 141l-102 287l-102 -287l-49 -141h-45l-172 494h45l70 -205l80 -233l155 438h37l154 -440l80 235z" />
    <glyph glyph-name="x" unicode="x" horiz-adv-x="472" 
d="M261 258l194 -258h-52l-167 224l-109 -146l-59 -78h-50l192 258l-177 236h52l150 -202l80 104l73 98h52z" />
    <glyph glyph-name="y" unicode="y" horiz-adv-x="545" 
d="M460 494h46l-320 -734h-46l106 243l-207 491h46l119 -286l65 -155z" />
    <glyph glyph-name="z" unicode="z" horiz-adv-x="472" 
d="M435 494v-22l-341 -432h340v-40h-404v22l339 432h-324v40h390z" />
    <glyph glyph-name="braceleft" unicode="{" horiz-adv-x="303" 
d="M101 297q59 -25 59 -127v-170q0 -45 16.5 -63.5t56.5 -18.5q18 0 48 6v-37q-34 -7 -59 -7q-51 0 -77.5 30.5t-26.5 89.5v170q0 110 -80 110v34q80 0 80 110v170q0 59 26.5 89.5t77.5 30.5q25 0 59 -7v-37q-30 6 -48 6q-40 0 -56.5 -18.5t-16.5 -63.5v-170
q0 -102 -59 -127z" />
    <glyph glyph-name="bar" unicode="|" horiz-adv-x="245" 
d="M101 708h42v-829h-42v829z" />
    <glyph glyph-name="braceright" unicode="}" horiz-adv-x="303" 
d="M265 314v-34q-80 0 -80 -110v-170q0 -59 -26.5 -89.5t-77.5 -30.5q-25 0 -59 7v37q30 -6 48 -6q40 0 56.5 18.5t16.5 63.5v170q0 102 59 127q-59 25 -59 127v170q0 45 -16.5 63.5t-56.5 18.5q-18 0 -48 -6v37q34 7 59 7q51 0 77.5 -30.5t26.5 -89.5v-170q0 -110 80 -110z
" />
    <glyph glyph-name="asciitilde" unicode="~" horiz-adv-x="627" 
d="M379 258.5q-27 11.5 -67 35.5q-34 21 -58 32t-48 11q-32 0 -58 -19t-40 -52l-32 14q14 42 49 68t80 26q29 0 55 -11t68 -35q34 -20 57 -30.5t46 -10.5q49 0 75 58l35 -15q-34 -83 -106 -83q-29 0 -56 11.5z" />
    <glyph glyph-name="uni00A0" unicode="&#xa0;" horiz-adv-x="267" 
 />
    <glyph glyph-name="exclamdown" unicode="&#xa1;" horiz-adv-x="214" 
d="M131 496.5q10 -9.5 10 -23.5q0 -15 -10 -24.5t-24 -9.5q-15 0 -24.5 9.5t-9.5 24.5q0 14 9.5 23.5t24.5 9.5q14 0 24 -9.5zM86 344h41l1 -544h-43z" />
    <glyph glyph-name="cent" unicode="&#xa2;" horiz-adv-x="529" 
d="M412 13q-42 -18 -88 -21v-95h-42v95q-66 5 -119 39t-83 90t-30 126q0 71 30 127t82.5 89.5t119.5 38.5v92h42v-92q92 -6 158 -72l-28 -28q-29 31 -67.5 46t-81.5 15q-59 0 -107.5 -25.5t-77 -74.5t-28.5 -116q0 -65 28.5 -114t77.5 -75.5t108 -26.5q43 0 82.5 15.5
t70.5 46.5l28 -30q-33 -32 -75 -50z" />
    <glyph glyph-name="sterling" unicode="&#xa3;" horiz-adv-x="642" 
d="M581 41v-41h-522v37q53 57 76 107.5t23 99.5q0 26 -9 66h-90v39h80q-14 50 -21 85t-7 77q0 96 68 145.5t170 49.5q106 0 165 -46.5t60 -132.5h-40q-1 67 -49 103t-136 36t-142 -40t-54 -116q0 -35 7 -67.5t23 -93.5h262v-39h-253q9 -43 9 -70q0 -100 -85 -199h465z" />
    <glyph glyph-name="currency" unicode="&#xa4;" horiz-adv-x="572" 
d="M130 194q-22 28 -34 62.5t-12 70.5q0 75 45 131l-60 59l31 30l58 -59q55 40 128 40q74 0 127 -41l60 60l30 -30l-59 -59q21 -27 32.5 -61t11.5 -70t-12 -70.5t-34 -62.5l61 -60l-30 -30l-62 60q-50 -38 -125 -38q-76 0 -126 38l-60 -60l-31 30zM401 210.5
q45 45.5 45 115.5q0 72 -45 117.5t-115 45.5q-71 0 -115.5 -45t-44.5 -118q0 -71 44.5 -116t115.5 -45q70 0 115 45.5z" />
    <glyph glyph-name="yen" unicode="&#xa5;" horiz-adv-x="656" 
d="M626 700l-255 -389h137v-38h-159v-59h159v-39h-159v-175h-43v175h-159v39h159v59h-159v38h138l-254 389h52l245 -378l246 378h52z" />
    <glyph glyph-name="brokenbar" unicode="&#xa6;" horiz-adv-x="245" 
d="M101 708h42v-380h-42v380zM101 261h42v-382h-42v382z" />
    <glyph glyph-name="section" unicode="&#xa7;" horiz-adv-x="534" 
d="M446.5 192q25.5 -31 25.5 -71q0 -63 -53.5 -98t-150.5 -35q-68 0 -123.5 25t-86.5 70l31 27q28 -40 74 -61.5t105 -21.5q77 0 119 25t42 70q0 42 -42.5 68.5t-114.5 28.5q-92 3 -144 37.5t-52 95.5q0 42 27 74t70 43q-45 15 -69 45t-24 71q0 58 52 92.5t138 34.5
q56 0 98 -15t77 -48l-26 -29q-31 28 -66 41t-82 13q-67 0 -108 -25t-41 -65q0 -41 41 -67t110 -29q96 -4 146 -38.5t50 -95.5q0 -42 -25 -72.5t-68 -43.5q45 -15 70.5 -46zM159.5 283q40.5 -25 113.5 -25t113.5 25t40.5 70t-40.5 70.5t-113.5 25.5t-113.5 -25.5t-40.5 -70.5
t40.5 -70z" />
    <glyph glyph-name="dieresis" unicode="&#xa8;" horiz-adv-x="443" 
d="M73.5 621.5q-10.5 10.5 -10.5 26.5t10.5 26t26.5 10t26.5 -10t10.5 -26t-10.5 -26.5t-26.5 -10.5t-26.5 10.5zM261.5 621.5q-10.5 10.5 -10.5 26.5t10.5 26t26.5 10t26 -10t10 -26t-10 -26.5t-26 -10.5t-26.5 10.5z" />
    <glyph glyph-name="copyright" unicode="&#xa9;" horiz-adv-x="837" 
d="M232.5 34q-82.5 46 -128.5 128.5t-46 187.5t46 187.5t128 128.5t187 46t187 -46t127.5 -128.5t45.5 -187.5t-45.5 -187.5t-127.5 -128.5t-187 -46q-104 0 -186.5 46zM586 67q73 41 113.5 114.5t40.5 168.5t-40.5 168.5t-113.5 114.5t-167 41t-167 -41t-113.5 -115
t-40.5 -168t40.5 -168t113.5 -115t167 -41t167 41zM336 180.5q-44 25.5 -69.5 70.5t-25.5 100q0 57 25 101.5t69 69.5t100 25q40 0 76.5 -15t62.5 -42l-23 -26q-22 22 -51.5 34t-64.5 12q-70 0 -113.5 -44t-43.5 -115q0 -45 20 -81.5t56 -57t81 -20.5q66 0 112 46l25 -26
q-28 -28 -63 -42.5t-74 -14.5q-55 0 -99 25.5z" />
    <glyph glyph-name="ordfeminine" unicode="&#xaa;" horiz-adv-x="509" 
d="M122.5 420q-45.5 46 -45.5 119t45.5 119t117.5 46q44 0 77.5 -17.5t53.5 -50.5v64h36v-324h-36v66q-20 -33 -53.5 -50.5t-77.5 -17.5q-72 0 -117.5 46zM149.5 633.5q-34.5 -35.5 -34.5 -94.5t34.5 -94.5t92.5 -35.5t92.5 35.5t34.5 94.5t-34.5 94.5t-92.5 35.5
t-92.5 -35.5zM90 303h330v-37h-330v37z" />
    <glyph glyph-name="guillemotleft" unicode="&#xab;" horiz-adv-x="393" 
d="M236 518l-139 -219l139 -220h-46l-139 220l139 219h46zM338 518l-139 -219l139 -220h-46l-139 220l139 219h46z" />
    <glyph glyph-name="logicalnot" unicode="&#xac;" horiz-adv-x="496" 
d="M376 321h-302v39h343v-183h-41v144z" />
    <glyph glyph-name="uni00AD" unicode="&#xad;" horiz-adv-x="497" 
d="M74 308h348v-40h-348v40z" />
    <glyph glyph-name="registered" unicode="&#xae;" horiz-adv-x="367" 
d="M282 674.5q38 -37.5 38 -96.5t-38.5 -97t-98.5 -38t-98 37.5t-38 97.5q0 59 38 96.5t98 37.5q61 0 99 -37.5zM263 499.5q30 29.5 30 78.5t-30 78.5t-80 29.5q-49 0 -79 -30t-30 -78q0 -49 30 -78.5t79 -29.5q50 0 80 29.5zM235.5 574q-8.5 -12 -22.5 -17l32 -48h-29
l-29 44h-31v-44h-23v141h59q23 0 37.5 -13.5t14.5 -34.5q0 -16 -8.5 -28zM213 620.5q-8 6.5 -22 6.5h-35v-51h35q14 0 22 7t8 19t-8 18.5z" />
    <glyph glyph-name="macron" unicode="&#xaf;" horiz-adv-x="377" 
d="M56 642h259v-35h-259v35z" />
    <glyph glyph-name="degree" unicode="&#xb0;" horiz-adv-x="314" 
d="M85.5 540q-27.5 27 -27.5 70q0 42 27.5 69t71.5 27t71.5 -27t27.5 -69q0 -43 -27.5 -70t-71.5 -27t-71.5 27zM204.5 564q18.5 18 18.5 46t-18.5 45.5t-47.5 17.5t-47.5 -17.5t-18.5 -45.5t18.5 -46t47.5 -18t47.5 18z" />
    <glyph glyph-name="plusminus" unicode="&#xb1;" horiz-adv-x="545" 
d="M252 181v163h-176v40h176v168h42v-168h175v-40h-175v-163h-42zM74 91h397v-41h-397v41z" />
    <glyph glyph-name="uni00B2" unicode="&#xb2;" horiz-adv-x="353" 
d="M80 488h228v-37h-265v79q0 53 35.5 80.5t99.5 28.5q49 1 72 17t23 51q0 34 -24.5 52t-70.5 18q-48 0 -71 -17t-23 -53h-36q0 50 34 78t96 28t97 -28.5t35 -77.5q0 -100 -127 -102q-103 -2 -103 -74v-43z" />
    <glyph glyph-name="uni00B3" unicode="&#xb3;" horiz-adv-x="351" 
d="M290 602.5q18 -24.5 18 -53.5q0 -49 -36.5 -77t-98.5 -28t-97.5 28t-37.5 78h38q0 -32 26 -51t71 -19q46 0 72 18.5t26 51.5q0 29 -27.5 49.5t-67.5 20.5h-55v34h53q40 0 65.5 17.5t25.5 44.5t-26 44.5t-67 17.5q-40 0 -63.5 -17t-25.5 -47h-36q2 46 35.5 72.5t89.5 26.5
q58 0 93.5 -26.5t35.5 -69.5q0 -28 -16.5 -50t-42.5 -30q30 -10 48 -34.5z" />
    <glyph glyph-name="acute" unicode="&#xb4;" horiz-adv-x="221" 
d="M111 700h50l-85 -121h-41z" />
    <glyph glyph-name="uni00B5" unicode="&#xb5;" horiz-adv-x="602" 
d="M520 494v-494h-41l-1 96q-28 -48 -79 -75.5t-109 -27.5q-51 0 -95 18.5t-71 60.5v-312h-41v734h42v-285q0 -91 47.5 -133.5t119.5 -42.5q49 0 91.5 22.5t68.5 65t26 98.5v275h42z" />
    <glyph glyph-name="paragraph" unicode="&#xb6;" horiz-adv-x="776" 
d="M758 660h-122v-877h-41v877h-277v-877h-41v413q-71 0 -126.5 32.5t-86.5 90.5t-31 130t32 129t90.5 89.5t135.5 32.5h467v-40z" />
    <glyph glyph-name="periodcentered" unicode="&#xb7;" horiz-adv-x="215" 
d="M84 268.5q-10 9.5 -10 23.5q0 15 10 24.5t24 9.5q15 0 24.5 -9.5t9.5 -24.5q0 -14 -9.5 -23.5t-24.5 -9.5q-14 0 -24 9.5z" />
    <glyph glyph-name="cedilla" unicode="&#xb8;" horiz-adv-x="278" 
d="M200 -68.5q26 -21.5 26 -57.5t-29 -59.5t-74 -23.5q-59 0 -99 36l19 25q36 -27 79 -27q29 0 48.5 14t19.5 36q0 23 -18.5 35.5t-51.5 12.5q-15 0 -27 -3l-13 10l26 88l35 -2l-20 -63h9q44 0 70 -21.5z" />
    <glyph glyph-name="uni00B9" unicode="&#xb9;" horiz-adv-x="227" 
d="M137 487h64v-36h-170v36h69v280l-57 -14v36l91 21h3v-323z" />
    <glyph glyph-name="ordmasculine" unicode="&#xba;" horiz-adv-x="483" 
d="M122.5 420q-45.5 46 -45.5 119t45.5 119t118.5 46q75 0 119.5 -45.5t44.5 -119.5t-44.5 -119.5t-119.5 -45.5q-73 0 -118.5 46zM332.5 444.5q34.5 35.5 34.5 94.5t-34.5 94.5t-91.5 35.5t-91.5 -35.5t-34.5 -94.5t34.5 -94.5t91.5 -35.5t91.5 35.5zM87 303h310v-37h-310
v37z" />
    <glyph glyph-name="guillemotright" unicode="&#xbb;" horiz-adv-x="393" 
d="M101 518l139 -219l-139 -220h-46l139 220l-139 219h46zM203 518l139 -219l-139 -220h-46l139 220l-139 219h46z" />
    <glyph glyph-name="onequarter" unicode="&#xbc;" horiz-adv-x="718" 
d="M137 381h64v-36h-170v36h69v280l-57 -14v36l91 21h3v-323zM493 700h42l-370 -700h-43zM682 121v-35h-42v-86h-37v86h-193l-6 28l188 241h48v-234h42zM453 121h150v190z" />
    <glyph glyph-name="onehalf" unicode="&#xbd;" horiz-adv-x="754" 
d="M137 381h64v-36h-170v36h69v280l-57 -14v36l91 21h3v-323zM493 700h42l-370 -700h-43zM481 37h228v-37h-265v79q0 53 35.5 80.5t99.5 28.5q49 1 72 17t23 51q0 34 -24.5 52t-70.5 18q-48 0 -71 -17t-23 -53h-36q0 50 34 78t96 28t97 -28.5t35 -77.5q0 -100 -127 -102
q-103 -2 -103 -74v-43z" />
    <glyph glyph-name="threequarters" unicode="&#xbe;" horiz-adv-x="812" 
d="M290 496.5q18 -24.5 18 -53.5q0 -49 -36.5 -77t-98.5 -28t-97.5 28t-37.5 78h38q0 -32 26 -51t71 -19q46 0 72 18.5t26 51.5q0 29 -27.5 49.5t-67.5 20.5h-55v34h53q40 0 65.5 17.5t25.5 44.5t-26 44.5t-67 17.5q-40 0 -63.5 -17t-25.5 -47h-36q2 46 35.5 72.5t89.5 26.5
q58 0 93.5 -26.5t35.5 -69.5q0 -28 -16.5 -50t-42.5 -30q30 -10 48 -34.5zM587 700h42l-370 -700h-43zM776 121v-35h-42v-86h-37v86h-193l-6 28l188 241h48v-234h42zM547 121h150v190z" />
    <glyph glyph-name="questiondown" unicode="&#xbf;" horiz-adv-x="581" 
d="M346.5 507.5q9.5 -9.5 9.5 -24.5q0 -14 -9.5 -24t-24.5 -10q-14 0 -24 10t-10 24q0 15 10 24.5t24 9.5q15 0 24.5 -9.5zM329.5 231q-14.5 -30 -48.5 -49t-94 -33q-55 -13 -80.5 -48.5t-25.5 -100.5q0 -77 55 -118t157 -41t157 41.5t55 119.5h43q0 -97 -66.5 -149.5
t-188.5 -52.5q-121 0 -188 52.5t-67 147.5q0 80 33 124.5t107 64.5q51 13 76.5 27t35.5 35t10 59v45h44v-47q0 -47 -14.5 -77z" />
    <glyph glyph-name="Agrave" unicode="&#xc0;" horiz-adv-x="736" 
d="M660 0l-79 176h-426l-79 -176h-48l314 700h52l314 -700h-48zM368 653l-195 -434h390zM352 780l-87 117h50l77 -117h-40z" />
    <glyph glyph-name="Aacute" unicode="&#xc1;" horiz-adv-x="736" 
d="M660 0l-79 176h-426l-79 -176h-48l314 700h52l314 -700h-48zM368 653l-195 -434h390zM420 897h50l-86 -117h-41z" />
    <glyph glyph-name="Acircumflex" unicode="&#xc2;" horiz-adv-x="736" 
d="M660 0l-79 176h-426l-79 -176h-48l314 700h52l314 -700h-48zM368 653l-195 -434h390zM503 780h-48l-87 84l-88 -84h-48l117 117h37z" />
    <glyph glyph-name="Atilde" unicode="&#xc3;" horiz-adv-x="736" 
d="M660 0l-79 176h-426l-79 -176h-48l314 700h52l314 -700h-48zM368 653l-195 -434h390zM401.5 806q-15.5 5 -38.5 18q-25 14 -37 18.5t-23 4.5q-25 0 -37 -35l-28 12q8 28 24.5 43.5t40.5 15.5q14 0 28.5 -5t44.5 -21q22 -12 33.5 -16t21.5 -4q26 0 38 36l29 -10
q-7 -30 -24.5 -46t-41.5 -16q-15 0 -30.5 5z" />
    <glyph glyph-name="Adieresis" unicode="&#xc4;" horiz-adv-x="736" 
d="M660 0l-79 176h-426l-79 -176h-48l314 700h52l314 -700h-48zM368 653l-195 -434h390zM245.5 824q-10.5 11 -10.5 27t10.5 27t26.5 11t27 -10.5t11 -27.5q0 -16 -11 -27t-27 -11t-26.5 11zM436 824q-11 11 -11 27t11 27t27 11t27 -10.5t11 -27.5q0 -16 -11 -27t-27 -11
t-27 11z" />
    <glyph glyph-name="Aring" unicode="&#xc5;" horiz-adv-x="736" 
d="M581 176h-426l-79 -176h-48l302 674q-29 10 -46.5 34.5t-17.5 57.5q0 42 28.5 69.5t73.5 27.5t73.5 -27.5t28.5 -69.5q0 -33 -17.5 -57.5t-46.5 -34.5l302 -674h-48zM319.5 719q18.5 -18 48.5 -18t48.5 18t18.5 47t-18.5 46.5t-48.5 17.5t-48.5 -17.5t-18.5 -46.5
t18.5 -47zM563 219l-195 434l-195 -434h390z" />
    <glyph glyph-name="AE" unicode="&#xc6;" horiz-adv-x="1008" 
d="M536 42h413v-42h-455v217h-310l-155 -217h-52l494 700h462v-42h-397v-283h375v-42h-375v-291zM212 260h282v399l-75 -107z" />
    <glyph glyph-name="Ccedilla" unicode="&#xc7;" horiz-adv-x="716" 
d="M558 17.5q-61 -26.5 -130 -29.5l-10 -35h9q44 0 70.5 -21.5t26.5 -57.5t-29.5 -59.5t-74.5 -23.5q-58 0 -100 36l20 26q36 -27 79 -27q29 0 48.5 13.5t19.5 35.5q0 23 -18.5 35.5t-51.5 12.5q-15 0 -27 -3l-14 10l18 58q-99 5 -176 52t-120 127.5t-43 182.5
q0 105 45.5 187.5t127 128.5t185.5 46q72 0 136 -27t113 -77l-30 -29q-44 44 -99.5 67.5t-118.5 23.5q-92 0 -164 -40.5t-111.5 -113t-39.5 -166.5t39.5 -166.5t111.5 -113t164 -40.5q63 0 120.5 23.5t102.5 67.5l29 -29q-47 -48 -108 -74.5z" />
    <glyph glyph-name="Egrave" unicode="&#xc8;" horiz-adv-x="653" 
d="M145 42h449v-42h-493v700h480v-42h-436v-283h415v-42h-415v-291zM335 780l-87 117h50l77 -117h-40z" />
    <glyph glyph-name="Eacute" unicode="&#xc9;" horiz-adv-x="653" 
d="M145 42h449v-42h-493v700h480v-42h-436v-283h415v-42h-415v-291zM404 897h50l-86 -117h-41z" />
    <glyph glyph-name="Ecircumflex" unicode="&#xca;" horiz-adv-x="653" 
d="M145 42h449v-42h-493v700h480v-42h-436v-283h415v-42h-415v-291zM486 780h-48l-87 84l-88 -84h-48l117 117h37z" />
    <glyph glyph-name="Edieresis" unicode="&#xcb;" horiz-adv-x="653" 
d="M145 42h449v-42h-493v700h480v-42h-436v-283h415v-42h-415v-291zM228.5 824q-10.5 11 -10.5 27t10.5 27t26.5 11t27 -10.5t11 -27.5q0 -16 -11 -27t-27 -11t-26.5 11zM419 824q-11 11 -11 27t11 27t27 11t27 -10.5t11 -27.5q0 -16 -11 -27t-27 -11t-27 11z" />
    <glyph glyph-name="Igrave" unicode="&#xcc;" horiz-adv-x="246" 
d="M101 700h44v-700h-44v700zM108 780l-87 117h50l77 -117h-40z" />
    <glyph glyph-name="Iacute" unicode="&#xcd;" horiz-adv-x="246" 
d="M101 700h44v-700h-44v700zM176 897h50l-86 -117h-41z" />
    <glyph glyph-name="Icircumflex" unicode="&#xce;" horiz-adv-x="246" 
d="M101 700h44v-700h-44v700zM253 780h-48l-82 83l-82 -83h-49l112 117h37z" />
    <glyph glyph-name="Idieresis" unicode="&#xcf;" horiz-adv-x="246" 
d="M101 700h44v-700h-44v700zM1.5 824q-10.5 11 -10.5 27t10.5 27t26.5 11t27 -10.5t11 -27.5q0 -16 -11 -27t-27 -11t-26.5 11zM192 824q-11 11 -11 27t11 27t27 11t27 -10.5t11 -27.5q0 -16 -11 -27t-27 -11t-27 11z" />
    <glyph glyph-name="Eth" unicode="&#xd0;" horiz-adv-x="752" 
d="M526 655.5q81 -44.5 126 -124t45 -181.5t-45 -181.5t-126 -124t-185 -44.5h-233v334h-78v42h78v324h233q104 0 185 -44.5zM503 81.5q71 38.5 110.5 108.5t39.5 160t-39.5 160t-110.5 108.5t-162 38.5h-189v-281h229v-42h-229v-291h189q91 0 162 38.5z" />
    <glyph glyph-name="Ntilde" unicode="&#xd1;" horiz-adv-x="753" 
d="M609 700h43v-700h-46l-461 633v-633h-44v700h48l460 -631v631zM405.5 806q-15.5 5 -38.5 18q-25 14 -37 18.5t-23 4.5q-25 0 -37 -35l-28 12q8 28 24.5 43.5t40.5 15.5q14 0 28.5 -5t44.5 -21q22 -12 33.5 -16t21.5 -4q26 0 38 36l29 -10q-7 -30 -24.5 -46t-41.5 -16
q-15 0 -30.5 5z" />
    <glyph glyph-name="Ograve" unicode="&#xd2;" horiz-adv-x="816" 
d="M225.5 34q-80.5 46 -125.5 128.5t-45 187.5t45 187.5t125.5 128.5t182.5 46t182.5 -46t125.5 -128.5t45 -187.5t-45 -187.5t-125.5 -128.5t-182.5 -46t-182.5 46zM567.5 70.5q70.5 40.5 110 113.5t39.5 166t-39.5 166t-110 113.5t-159.5 40.5t-159.5 -40.5t-110 -113.5
t-39.5 -166t39.5 -166t110 -113.5t159.5 -40.5t159.5 40.5zM392 780l-87 117h50l77 -117h-40z" />
    <glyph glyph-name="Oacute" unicode="&#xd3;" horiz-adv-x="816" 
d="M225.5 34q-80.5 46 -125.5 128.5t-45 187.5t45 187.5t125.5 128.5t182.5 46t182.5 -46t125.5 -128.5t45 -187.5t-45 -187.5t-125.5 -128.5t-182.5 -46t-182.5 46zM567.5 70.5q70.5 40.5 110 113.5t39.5 166t-39.5 166t-110 113.5t-159.5 40.5t-159.5 -40.5t-110 -113.5
t-39.5 -166t39.5 -166t110 -113.5t159.5 -40.5t159.5 40.5zM460 897h50l-86 -117h-41z" />
    <glyph glyph-name="Ocircumflex" unicode="&#xd4;" horiz-adv-x="816" 
d="M225.5 34q-80.5 46 -125.5 128.5t-45 187.5t45 187.5t125.5 128.5t182.5 46t182.5 -46t125.5 -128.5t45 -187.5t-45 -187.5t-125.5 -128.5t-182.5 -46t-182.5 46zM567.5 70.5q70.5 40.5 110 113.5t39.5 166t-39.5 166t-110 113.5t-159.5 40.5t-159.5 -40.5t-110 -113.5
t-39.5 -166t39.5 -166t110 -113.5t159.5 -40.5t159.5 40.5zM543 780h-48l-87 84l-88 -84h-48l117 117h37z" />
    <glyph glyph-name="Otilde" unicode="&#xd5;" horiz-adv-x="816" 
d="M225.5 34q-80.5 46 -125.5 128.5t-45 187.5t45 187.5t125.5 128.5t182.5 46t182.5 -46t125.5 -128.5t45 -187.5t-45 -187.5t-125.5 -128.5t-182.5 -46t-182.5 46zM567.5 70.5q70.5 40.5 110 113.5t39.5 166t-39.5 166t-110 113.5t-159.5 40.5t-159.5 -40.5t-110 -113.5
t-39.5 -166t39.5 -166t110 -113.5t159.5 -40.5t159.5 40.5zM441.5 806q-15.5 5 -38.5 18q-25 14 -37 18.5t-23 4.5q-25 0 -37 -35l-28 12q8 28 24.5 43.5t40.5 15.5q14 0 28.5 -5t44.5 -21q22 -12 33.5 -16t21.5 -4q26 0 38 36l29 -10q-7 -30 -24.5 -46t-41.5 -16
q-15 0 -30.5 5z" />
    <glyph glyph-name="Odieresis" unicode="&#xd6;" horiz-adv-x="816" 
d="M225.5 34q-80.5 46 -125.5 128.5t-45 187.5t45 187.5t125.5 128.5t182.5 46t182.5 -46t125.5 -128.5t45 -187.5t-45 -187.5t-125.5 -128.5t-182.5 -46t-182.5 46zM567.5 70.5q70.5 40.5 110 113.5t39.5 166t-39.5 166t-110 113.5t-159.5 40.5t-159.5 -40.5t-110 -113.5
t-39.5 -166t39.5 -166t110 -113.5t159.5 -40.5t159.5 40.5zM285.5 824q-10.5 11 -10.5 27t10.5 27t26.5 11t27 -10.5t11 -27.5q0 -16 -11 -27t-27 -11t-26.5 11zM476 824q-11 11 -11 27t11 27t27 11t27 -10.5t11 -27.5q0 -16 -11 -27t-27 -11t-27 11z" />
    <glyph glyph-name="multiply" unicode="&#xd7;" horiz-adv-x="452" 
d="M379 449l-127 -127l127 -128l-26 -27l-127 128l-127 -128l-26 27l127 128l-127 127l26 27l127 -128l127 128z" />
    <glyph glyph-name="Oslash" unicode="&#xd8;" horiz-adv-x="816" 
d="M722 525q39 -78 39 -175q0 -105 -45 -187.5t-125.5 -128.5t-182.5 -46q-94 0 -170 39l-62 -101h-48l74 122q-69 48 -108 126t-39 176q0 105 45 187.5t125.5 128.5t182.5 46q94 0 171 -40l61 101h48l-74 -122q69 -48 108 -126zM132.5 196.5q33.5 -68.5 92.5 -110.5
l331 549q-65 35 -148 35q-89 0 -159.5 -40.5t-110 -113.5t-39.5 -166q0 -85 33.5 -153.5zM567.5 70.5q70.5 40.5 110 113.5t39.5 166q0 85 -33 153t-92 111l-332 -550q66 -34 148 -34q89 0 159.5 40.5z" />
    <glyph glyph-name="Ugrave" unicode="&#xd9;" horiz-adv-x="732" 
d="M224 24q-62 35 -96.5 98.5t-34.5 145.5v432h44v-432q0 -70 29 -123.5t81 -83.5t119 -30t119 30t81 83.5t29 123.5v432h44v-432q0 -82 -34.5 -145.5t-96.5 -98.5t-142 -35t-142 35zM350 780l-87 117h50l77 -117h-40z" />
    <glyph glyph-name="Uacute" unicode="&#xda;" horiz-adv-x="732" 
d="M224 24q-62 35 -96.5 98.5t-34.5 145.5v432h44v-432q0 -70 29 -123.5t81 -83.5t119 -30t119 30t81 83.5t29 123.5v432h44v-432q0 -82 -34.5 -145.5t-96.5 -98.5t-142 -35t-142 35zM418 897h50l-86 -117h-41z" />
    <glyph glyph-name="Ucircumflex" unicode="&#xdb;" horiz-adv-x="732" 
d="M224 24q-62 35 -96.5 98.5t-34.5 145.5v432h44v-432q0 -70 29 -123.5t81 -83.5t119 -30t119 30t81 83.5t29 123.5v432h44v-432q0 -82 -34.5 -145.5t-96.5 -98.5t-142 -35t-142 35zM501 780h-48l-87 84l-88 -84h-48l117 117h37z" />
    <glyph glyph-name="Udieresis" unicode="&#xdc;" horiz-adv-x="732" 
d="M224 24q-62 35 -96.5 98.5t-34.5 145.5v432h44v-432q0 -70 29 -123.5t81 -83.5t119 -30t119 30t81 83.5t29 123.5v432h44v-432q0 -82 -34.5 -145.5t-96.5 -98.5t-142 -35t-142 35zM243.5 824q-10.5 11 -10.5 27t10.5 27t26.5 11t27 -10.5t11 -27.5q0 -16 -11 -27t-27 -11
t-26.5 11zM434 824q-11 11 -11 27t11 27t27 11t27 -10.5t11 -27.5q0 -16 -11 -27t-27 -11t-27 11z" />
    <glyph glyph-name="Yacute" unicode="&#xdd;" horiz-adv-x="656" 
d="M625 700l-276 -421v-279h-44v279l-275 421h52l245 -378l245 378h53zM380 897h50l-86 -117h-41z" />
    <glyph glyph-name="Thorn" unicode="&#xde;" horiz-adv-x="668" 
d="M523.5 550q52.5 -29 80 -80.5t27.5 -118.5t-27.5 -118.5t-80 -80.5t-125.5 -29h-253v-123h-44v700h44v-121h253q73 0 125.5 -29zM538 216q50 51 50 135t-50 135t-141 51h-252v-372h252q91 0 141 51z" />
    <glyph glyph-name="germandbls" unicode="&#xdf;" horiz-adv-x="602" 
d="M510 317q43 -50 43 -127q0 -93 -58.5 -147.5t-157.5 -54.5q-74 0 -141 29v43q66 -32 134 -32q84 0 132.5 42.5t48.5 118.5q0 84 -57 127.5t-169 43.5h-88v38h84q82 0 128 35.5t46 99.5q0 67 -42.5 102.5t-124.5 35.5t-122.5 -41t-40.5 -126v-504h-42v505q0 100 52.5 153
t152.5 53t154.5 -46.5t54.5 -131.5q0 -54 -29 -94.5t-79 -55.5q78 -16 121 -66z" />
    <glyph glyph-name="agrave" unicode="&#xe0;" horiz-adv-x="632" 
d="M550 494v-494h-40l-1 110q-28 -55 -84.5 -86.5t-127.5 -31.5q-72 0 -128 32.5t-87.5 90.5t-31.5 132t31.5 132t87.5 90.5t128 32.5q71 0 127.5 -32t84.5 -87l1 111h40zM407.5 58q47.5 27 74 76t26.5 113t-26.5 113t-74 76t-107.5 27q-61 0 -108 -27t-73.5 -76t-26.5 -113
t26.5 -113t73.5 -76t108 -27q60 0 107.5 27zM310 579l-85 121h50l76 -121h-41z" />
    <glyph glyph-name="aacute" unicode="&#xe1;" horiz-adv-x="632" 
d="M550 494v-494h-40l-1 110q-28 -55 -84.5 -86.5t-127.5 -31.5q-72 0 -128 32.5t-87.5 90.5t-31.5 132t31.5 132t87.5 90.5t128 32.5q71 0 127.5 -32t84.5 -87l1 111h40zM407.5 58q47.5 27 74 76t26.5 113t-26.5 113t-74 76t-107.5 27q-61 0 -108 -27t-73.5 -76t-26.5 -113
t26.5 -113t73.5 -76t108 -27q60 0 107.5 27zM356 700h50l-85 -121h-41z" />
    <glyph glyph-name="acircumflex" unicode="&#xe2;" horiz-adv-x="632" 
d="M550 494v-494h-40l-1 110q-28 -55 -84.5 -86.5t-127.5 -31.5q-72 0 -128 32.5t-87.5 90.5t-31.5 132t31.5 132t87.5 90.5t128 32.5q71 0 127.5 -32t84.5 -87l1 111h40zM407.5 58q47.5 27 74 76t26.5 113t-26.5 113t-74 76t-107.5 27q-61 0 -108 -27t-73.5 -76t-26.5 -113
t26.5 -113t73.5 -76t108 -27q60 0 107.5 27zM459 579h-48l-96 88l-97 -88h-48l126 121h37z" />
    <glyph glyph-name="atilde" unicode="&#xe3;" horiz-adv-x="632" 
d="M550 494v-494h-40l-1 110q-28 -55 -84.5 -86.5t-127.5 -31.5q-72 0 -128 32.5t-87.5 90.5t-31.5 132t31.5 132t87.5 90.5t128 32.5q71 0 127.5 -32t84.5 -87l1 111h40zM407.5 58q47.5 27 74 76t26.5 113t-26.5 113t-74 76t-107.5 27q-61 0 -108 -27t-73.5 -76t-26.5 -113
t26.5 -113t73.5 -76t108 -27q60 0 107.5 27zM348 619q-14 5 -37 18q-25 14 -35 18t-21 4q-25 0 -37 -35l-28 12q8 29 24.5 44t40.5 15q14 0 27 -5t42 -21q21 -11 31 -15t20 -4q25 0 37 36l29 -11q-7 -30 -24 -45.5t-41 -15.5q-14 0 -28 5z" />
    <glyph glyph-name="adieresis" unicode="&#xe4;" horiz-adv-x="632" 
d="M550 494v-494h-40l-1 110q-28 -55 -84.5 -86.5t-127.5 -31.5q-72 0 -128 32.5t-87.5 90.5t-31.5 132t31.5 132t87.5 90.5t128 32.5q71 0 127.5 -32t84.5 -87l1 111h40zM407.5 58q47.5 27 74 76t26.5 113t-26.5 113t-74 76t-107.5 27q-61 0 -108 -27t-73.5 -76t-26.5 -113
t26.5 -113t73.5 -76t108 -27q60 0 107.5 27zM195.5 621.5q-10.5 10.5 -10.5 26.5t10.5 26t26.5 10t26.5 -10t10.5 -26t-10.5 -26.5t-26.5 -10.5t-26.5 10.5zM383.5 621.5q-10.5 10.5 -10.5 26.5t10.5 26t26.5 10t26 -10t10 -26t-10 -26.5t-26 -10.5t-26.5 10.5z" />
    <glyph glyph-name="aring" unicode="&#xe5;" horiz-adv-x="632" 
d="M550 494v-494h-40l-1 110q-28 -55 -84.5 -86.5t-127.5 -31.5q-72 0 -128 32.5t-87.5 90.5t-31.5 132t31.5 132t87.5 90.5t128 32.5q71 0 127.5 -32t84.5 -87l1 111h40zM407.5 58q47.5 27 74 76t26.5 113t-26.5 113t-74 76t-107.5 27q-61 0 -108 -27t-73.5 -76t-26.5 -113
t26.5 -113t73.5 -76t108 -27q60 0 107.5 27zM242.5 566q-28.5 27 -28.5 70t28.5 70t73.5 27t73.5 -27t28.5 -70t-28.5 -70t-73.5 -27t-73.5 27zM364.5 589.5q18.5 17.5 18.5 46.5t-18.5 46.5t-48.5 17.5t-48.5 -17.5t-18.5 -46.5t18.5 -46.5t48.5 -17.5t48.5 17.5z" />
    <glyph glyph-name="ae" unicode="&#xe6;" horiz-adv-x="1045" 
d="M887 472.5q55 -30.5 85.5 -85.5t30.5 -126q0 -20 -1 -30h-451q6 -92 62 -146t145 -54q54 0 104 22t78 57l30 -24q-34 -44 -90 -69t-121 -25q-69 0 -124 30.5t-87 86.5v-109h-40v110q-27 -55 -83.5 -86.5t-127.5 -31.5q-72 0 -128 32.5t-87.5 90.5t-31.5 132t31.5 132
t87.5 90.5t128 32.5q70 0 126 -31t85 -85v108h40v-109q32 56 87 87t124 31q73 0 128 -30.5zM615 410.5q-56 -53.5 -64 -140.5h412q0 57 -26.5 101t-73 68.5t-107.5 24.5q-85 0 -141 -53.5zM407 58q47 27 73 76t26 113t-26 113t-73 76t-108 27t-108 -27t-73 -76t-26 -113
q0 -63 26 -112.5t73 -76.5t108 -27t108 27z" />
    <glyph glyph-name="ccedilla" unicode="&#xe7;" horiz-adv-x="529" 
d="M380 -68.5q26 -21.5 26 -57.5t-29 -59.5t-74 -23.5q-58 0 -99 36l19 25q36 -27 79 -27q29 0 48.5 14t19.5 36q0 23 -18.5 35.5t-51.5 12.5q-15 0 -27 -3l-13 10l18 62q-65 6 -117 40t-81.5 90t-29.5 125q0 76 33.5 134t91.5 90t131 32q103 0 176 -73l-28 -28
q-29 31 -67.5 46t-81.5 15q-59 0 -107.5 -25.5t-77 -74.5t-28.5 -116q0 -65 28.5 -114t77.5 -75.5t108 -26.5q43 0 82.5 15.5t70.5 46.5l28 -30q-35 -34 -80 -52t-94 -20l-12 -38h9q44 0 70 -21.5z" />
    <glyph glyph-name="egrave" unicode="&#xe8;" horiz-adv-x="587" 
d="M428.5 472.5q56.5 -30.5 87 -85.5t30.5 -127q0 -19 -1 -29h-453q7 -93 63 -147t145 -54q55 0 105 22t77 58l30 -25q-35 -44 -91 -69.5t-121 -25.5q-72 0 -129 33t-89 91.5t-32 132.5t31.5 132t88 91t128.5 33q74 0 130.5 -30.5zM155 410.5q-56 -53.5 -63 -140.5h413
q0 57 -26.5 101t-73 68.5t-107.5 24.5q-87 0 -143 -53.5zM293 579l-85 121h50l76 -121h-41z" />
    <glyph glyph-name="eacute" unicode="&#xe9;" horiz-adv-x="587" 
d="M428.5 472.5q56.5 -30.5 87 -85.5t30.5 -127q0 -19 -1 -29h-453q7 -93 63 -147t145 -54q55 0 105 22t77 58l30 -25q-35 -44 -91 -69.5t-121 -25.5q-72 0 -129 33t-89 91.5t-32 132.5t31.5 132t88 91t128.5 33q74 0 130.5 -30.5zM155 410.5q-56 -53.5 -63 -140.5h413
q0 57 -26.5 101t-73 68.5t-107.5 24.5q-87 0 -143 -53.5zM339 700h50l-85 -121h-41z" />
    <glyph glyph-name="ecircumflex" unicode="&#xea;" horiz-adv-x="587" 
d="M428.5 472.5q56.5 -30.5 87 -85.5t30.5 -127q0 -19 -1 -29h-453q7 -93 63 -147t145 -54q55 0 105 22t77 58l30 -25q-35 -44 -91 -69.5t-121 -25.5q-72 0 -129 33t-89 91.5t-32 132.5t31.5 132t88 91t128.5 33q74 0 130.5 -30.5zM155 410.5q-56 -53.5 -63 -140.5h413
q0 57 -26.5 101t-73 68.5t-107.5 24.5q-87 0 -143 -53.5zM442 579h-48l-96 88l-97 -88h-48l126 121h37z" />
    <glyph glyph-name="edieresis" unicode="&#xeb;" horiz-adv-x="587" 
d="M428.5 472.5q56.5 -30.5 87 -85.5t30.5 -127q0 -19 -1 -29h-453q7 -93 63 -147t145 -54q55 0 105 22t77 58l30 -25q-35 -44 -91 -69.5t-121 -25.5q-72 0 -129 33t-89 91.5t-32 132.5t31.5 132t88 91t128.5 33q74 0 130.5 -30.5zM155 410.5q-56 -53.5 -63 -140.5h413
q0 57 -26.5 101t-73 68.5t-107.5 24.5q-87 0 -143 -53.5zM178.5 621.5q-10.5 10.5 -10.5 26.5t10.5 26t26.5 10t26.5 -10t10.5 -26t-10.5 -26.5t-26.5 -10.5t-26.5 10.5zM366.5 621.5q-10.5 10.5 -10.5 26.5t10.5 26t26.5 10t26 -10t10 -26t-10 -26.5t-26 -10.5t-26.5 10.5z
" />
    <glyph glyph-name="igrave" unicode="&#xec;" horiz-adv-x="207" 
d="M83 494h42v-494h-42v494zM92 579l-69 121h50l60 -121h-41z" />
    <glyph glyph-name="iacute" unicode="&#xed;" horiz-adv-x="207" 
d="M83 494h42v-494h-42v494zM134 700h50l-69 -121h-41z" />
    <glyph glyph-name="icircumflex" unicode="&#xee;" horiz-adv-x="207" 
d="M83 494h42v-494h-42v494zM229 579h-46l-80 88l-79 -88h-46l107 121h37z" />
    <glyph glyph-name="idieresis" unicode="&#xef;" horiz-adv-x="207" 
d="M83 494h42v-494h-42v494zM1.5 621.5q-10.5 10.5 -10.5 26.5q0 15 10.5 25.5t26.5 10.5t26 -10.5t10 -25.5q0 -16 -10 -26.5t-26 -10.5t-26.5 10.5zM153.5 621.5q-10.5 10.5 -10.5 26.5q0 15 10.5 25.5t26.5 10.5t26 -10.5t10 -25.5q0 -16 -10 -26.5t-26 -10.5t-26.5 10.5
z" />
    <glyph glyph-name="eth" unicode="&#xf0;" horiz-adv-x="611" 
d="M558 248q0 -75 -32 -133.5t-89.5 -90.5t-132.5 -32q-81 0 -138.5 34.5t-86.5 91.5t-29 124q0 65 29 122.5t86 92.5t137 35q62 0 114.5 -26.5t81.5 -71.5q-21 61 -62.5 113t-97.5 92l-41 -60l-28 17l41 61q-50 29 -101 46l13 36q59 -22 109 -51l43 64l29 -17l-44 -65
q199 -133 199 -382zM419 61q48 30 72.5 78t24.5 103t-24.5 103.5t-72.5 78t-115 29.5t-115 -29t-72.5 -77.5t-24.5 -104.5q0 -57 25 -105.5t72.5 -77t114.5 -28.5t115 30z" />
    <glyph glyph-name="ntilde" unicode="&#xf1;" horiz-adv-x="602" 
d="M470.5 444q55.5 -57 55.5 -159v-285h-42v283q0 86 -44 132t-125 46q-55 0 -98.5 -24.5t-67.5 -67t-24 -94.5v-275h-42v494h40v-97q29 48 80 76t114 28q98 0 153.5 -57zM341 619q-14 5 -37 18q-25 14 -35 18t-21 4q-25 0 -37 -35l-28 12q8 29 24.5 44t40.5 15q14 0 27 -5
t42 -21q21 -11 31 -15t20 -4q25 0 37 36l29 -11q-7 -30 -24 -45.5t-41 -15.5q-14 0 -28 5z" />
    <glyph glyph-name="ograve" unicode="&#xf2;" horiz-adv-x="605" 
d="M172.5 24q-57.5 33 -90 91.5t-32.5 131.5t32.5 131.5t90 91.5t129.5 33q73 0 130.5 -33t90 -91.5t32.5 -131.5t-32.5 -131.5t-90 -91.5t-130.5 -33q-72 0 -129.5 33zM410 59q48 28 75.5 77.5t27.5 110.5t-27.5 110.5t-75.5 77.5t-108 28t-108 -28t-75 -77.5t-27 -110.5
t27 -110.5t75 -77.5t108 -28t108 28zM297 579l-85 121h50l76 -121h-41z" />
    <glyph glyph-name="oacute" unicode="&#xf3;" horiz-adv-x="605" 
d="M172.5 24q-57.5 33 -90 91.5t-32.5 131.5t32.5 131.5t90 91.5t129.5 33q73 0 130.5 -33t90 -91.5t32.5 -131.5t-32.5 -131.5t-90 -91.5t-130.5 -33q-72 0 -129.5 33zM410 59q48 28 75.5 77.5t27.5 110.5t-27.5 110.5t-75.5 77.5t-108 28t-108 -28t-75 -77.5t-27 -110.5
t27 -110.5t75 -77.5t108 -28t108 28zM343 700h50l-85 -121h-41z" />
    <glyph glyph-name="ocircumflex" unicode="&#xf4;" horiz-adv-x="605" 
d="M172.5 24q-57.5 33 -90 91.5t-32.5 131.5t32.5 131.5t90 91.5t129.5 33q73 0 130.5 -33t90 -91.5t32.5 -131.5t-32.5 -131.5t-90 -91.5t-130.5 -33q-72 0 -129.5 33zM410 59q48 28 75.5 77.5t27.5 110.5t-27.5 110.5t-75.5 77.5t-108 28t-108 -28t-75 -77.5t-27 -110.5
t27 -110.5t75 -77.5t108 -28t108 28zM446 579h-48l-96 88l-97 -88h-48l126 121h37z" />
    <glyph glyph-name="otilde" unicode="&#xf5;" horiz-adv-x="605" 
d="M172.5 24q-57.5 33 -90 91.5t-32.5 131.5t32.5 131.5t90 91.5t129.5 33q73 0 130.5 -33t90 -91.5t32.5 -131.5t-32.5 -131.5t-90 -91.5t-130.5 -33q-72 0 -129.5 33zM410 59q48 28 75.5 77.5t27.5 110.5t-27.5 110.5t-75.5 77.5t-108 28t-108 -28t-75 -77.5t-27 -110.5
t27 -110.5t75 -77.5t108 -28t108 28zM334 619q-14 5 -37 18q-25 14 -35 18t-21 4q-25 0 -37 -35l-28 12q8 29 24.5 44t40.5 15q14 0 27 -5t42 -21q21 -11 31 -15t20 -4q25 0 37 36l29 -11q-7 -30 -24 -45.5t-41 -15.5q-14 0 -28 5z" />
    <glyph glyph-name="odieresis" unicode="&#xf6;" horiz-adv-x="605" 
d="M172.5 24q-57.5 33 -90 91.5t-32.5 131.5t32.5 131.5t90 91.5t129.5 33q73 0 130.5 -33t90 -91.5t32.5 -131.5t-32.5 -131.5t-90 -91.5t-130.5 -33q-72 0 -129.5 33zM410 59q48 28 75.5 77.5t27.5 110.5t-27.5 110.5t-75.5 77.5t-108 28t-108 -28t-75 -77.5t-27 -110.5
t27 -110.5t75 -77.5t108 -28t108 28zM182.5 621.5q-10.5 10.5 -10.5 26.5t10.5 26t26.5 10t26.5 -10t10.5 -26t-10.5 -26.5t-26.5 -10.5t-26.5 10.5zM370.5 621.5q-10.5 10.5 -10.5 26.5t10.5 26t26.5 10t26 -10t10 -26t-10 -26.5t-26 -10.5t-26.5 10.5z" />
    <glyph glyph-name="divide" unicode="&#xf7;" horiz-adv-x="531" 
d="M240 464.5q-10 9.5 -10 25.5t10 25.5t25 9.5t25.5 -9.5t10.5 -25.5t-10.5 -25.5t-25.5 -9.5t-25 9.5zM74 362h383v-40h-383v40zM240 167q-10 10 -10 26q0 15 10 25t25 10t25.5 -10t10.5 -25q0 -16 -10.5 -26t-25.5 -10t-25 10z" />
    <glyph glyph-name="oslash" unicode="&#xf8;" horiz-adv-x="603" 
d="M526 369q27 -54 27 -122q0 -77 -34 -135t-91.5 -89.5t-126.5 -31.5q-60 0 -113 25l-40 -67h-45l51 86q-49 34 -76.5 88.5t-27.5 123.5q0 77 34 135t91 89.5t126 31.5q64 0 118 -27l38 64h45l-50 -83q47 -34 74 -88zM114 145.5q22 -45.5 61 -74.5l223 370q-46 22 -97 22
q-57 0 -104.5 -27t-76 -76t-28.5 -113q0 -56 22 -101.5zM406 58q48 27 76.5 76t28.5 113q0 55 -21.5 100t-58.5 74l-223 -370q43 -20 93 -20q57 0 105 27z" />
    <glyph glyph-name="ugrave" unicode="&#xf9;" 
d="M513 494v-494h-40v99q-29 -49 -79 -77.5t-112 -28.5q-96 0 -151 57t-55 159v285h42v-283q0 -86 43.5 -132t123.5 -46q54 0 96.5 24.5t66 67t23.5 94.5v275h42zM289 579l-85 121h50l76 -121h-41z" />
    <glyph glyph-name="uacute" unicode="&#xfa;" 
d="M513 494v-494h-40v99q-29 -49 -79 -77.5t-112 -28.5q-96 0 -151 57t-55 159v285h42v-283q0 -86 43.5 -132t123.5 -46q54 0 96.5 24.5t66 67t23.5 94.5v275h42zM335 700h50l-85 -121h-41z" />
    <glyph glyph-name="ucircumflex" unicode="&#xfb;" 
d="M513 494v-494h-40v99q-29 -49 -79 -77.5t-112 -28.5q-96 0 -151 57t-55 159v285h42v-283q0 -86 43.5 -132t123.5 -46q54 0 96.5 24.5t66 67t23.5 94.5v275h42zM438 579h-48l-96 88l-97 -88h-48l126 121h37z" />
    <glyph glyph-name="udieresis" unicode="&#xfc;" 
d="M513 494v-494h-40v99q-29 -49 -79 -77.5t-112 -28.5q-96 0 -151 57t-55 159v285h42v-283q0 -86 43.5 -132t123.5 -46q54 0 96.5 24.5t66 67t23.5 94.5v275h42zM174.5 621.5q-10.5 10.5 -10.5 26.5t10.5 26t26.5 10t26.5 -10t10.5 -26t-10.5 -26.5t-26.5 -10.5t-26.5 10.5
zM362.5 621.5q-10.5 10.5 -10.5 26.5t10.5 26t26.5 10t26 -10t10 -26t-10 -26.5t-26 -10.5t-26.5 10.5z" />
    <glyph glyph-name="yacute" unicode="&#xfd;" horiz-adv-x="545" 
d="M460 494h46l-320 -734h-46l106 243l-207 491h46l119 -286l65 -155zM313 700h50l-85 -121h-41z" />
    <glyph glyph-name="thorn" unicode="&#xfe;" horiz-adv-x="632" 
d="M463.5 469.5q56.5 -32.5 88 -90.5t31.5 -132t-31.5 -132t-88 -90.5t-128.5 -32.5q-70 0 -126.5 31.5t-83.5 84.5v-348h-42v940h42v-314q28 54 84 85t126 31q72 0 128.5 -32.5zM441.5 58q47.5 27 73.5 76t26 113t-26.5 113t-73.5 76t-108 27t-108.5 -27t-73.5 -76
t-26 -113t26 -113t73.5 -76t108.5 -27t108.5 27z" />
    <glyph glyph-name="ydieresis" unicode="&#xff;" horiz-adv-x="545" 
d="M460 494h46l-320 -734h-46l106 243l-207 491h46l119 -286l65 -155zM152.5 621.5q-10.5 10.5 -10.5 26.5t10.5 26t26.5 10t26.5 -10t10.5 -26t-10.5 -26.5t-26.5 -10.5t-26.5 10.5zM340.5 621.5q-10.5 10.5 -10.5 26.5t10.5 26t26.5 10t26 -10t10 -26t-10 -26.5t-26 -10.5
t-26.5 10.5z" />
    <glyph glyph-name="Amacron" unicode="&#x100;" horiz-adv-x="736" 
d="M660 0l-79 176h-426l-79 -176h-48l314 700h52l314 -700h-48zM368 653l-195 -434h390zM228 848h281v-35h-281v35z" />
    <glyph glyph-name="amacron" unicode="&#x101;" horiz-adv-x="632" 
d="M550 494v-494h-40l-1 110q-28 -55 -84.5 -86.5t-127.5 -31.5q-72 0 -128 32.5t-87.5 90.5t-31.5 132t31.5 132t87.5 90.5t128 32.5q71 0 127.5 -32t84.5 -87l1 111h40zM407.5 58q47.5 27 74 76t26.5 113t-26.5 113t-74 76t-107.5 27q-61 0 -108 -27t-73.5 -76t-26.5 -113
t26.5 -113t73.5 -76t108 -27q60 0 107.5 27zM186 642h259v-35h-259v35z" />
    <glyph glyph-name="Abreve" unicode="&#x102;" horiz-adv-x="736" 
d="M660 0l-79 176h-426l-79 -176h-48l314 700h52l314 -700h-48zM368 653l-195 -434h390zM281 813q-34 32 -34 82h36q0 -35 23.5 -56.5t61.5 -21.5t61 21.5t23 56.5h37q0 -49 -34 -81.5t-87 -32.5t-87 32z" />
    <glyph glyph-name="abreve" unicode="&#x103;" horiz-adv-x="632" 
d="M550 494v-494h-40l-1 110q-28 -55 -84.5 -86.5t-127.5 -31.5q-72 0 -128 32.5t-87.5 90.5t-31.5 132t31.5 132t87.5 90.5t128 32.5q71 0 127.5 -32t84.5 -87l1 111h40zM407.5 58q47.5 27 74 76t26.5 113t-26.5 113t-74 76t-107.5 27q-61 0 -108 -27t-73.5 -76t-26.5 -113
t26.5 -113t73.5 -76t108 -27q60 0 107.5 27zM229 623q-34 30 -34 77h35q0 -32 24 -52.5t62 -20.5t61.5 20.5t23.5 52.5h36q0 -46 -34 -76.5t-87 -30.5t-87 30z" />
    <glyph glyph-name="Aogonek" unicode="&#x104;" horiz-adv-x="736" 
d="M780 -142q-49 -43 -112 -43q-45 0 -71.5 23.5t-26.5 63.5q0 64 84 110l-73 164h-426l-79 -176h-48l314 700h52l314 -700q-50 -21 -73.5 -44t-23.5 -50q0 -25 16 -38.5t45 -13.5q50 0 87 33zM368 653l-195 -434h390z" />
    <glyph glyph-name="aogonek" unicode="&#x105;" horiz-adv-x="632" 
d="M620 -141q-49 -43 -113 -43q-44 0 -70 22.5t-26 61.5q0 71 99 118l-1 92q-28 -55 -84.5 -86.5t-127.5 -31.5q-72 0 -128 32.5t-87.5 90.5t-31.5 132t31.5 132t87.5 90.5t128 32.5q71 0 127.5 -32t84.5 -87l1 111h40v-494q-52 -20 -76 -43.5t-24 -52.5q0 -24 16 -37.5
t46 -13.5q47 0 86 34zM407.5 58q47.5 27 74 76t26.5 113t-26.5 113t-74 76t-107.5 27q-61 0 -108 -27t-73.5 -76t-26.5 -113t26.5 -113t73.5 -76t108 -27q60 0 107.5 27z" />
    <glyph glyph-name="Cacute" unicode="&#x106;" horiz-adv-x="716" 
d="M228 34q-82 46 -127.5 128.5t-45.5 187.5t45.5 187.5t127 128.5t185.5 46q72 0 136 -27t113 -77l-30 -29q-44 44 -99.5 67.5t-118.5 23.5q-92 0 -164 -40.5t-111.5 -113t-39.5 -166.5t39.5 -166.5t111.5 -113t164 -40.5q63 0 120.5 23.5t102.5 67.5l29 -29
q-49 -51 -114 -77.5t-138 -26.5q-104 0 -186 46zM464 897h50l-86 -117h-41z" />
    <glyph glyph-name="cacute" unicode="&#x107;" horiz-adv-x="529" 
d="M175.5 23.5q-58.5 32.5 -92 91t-33.5 132.5q0 76 33.5 134t91.5 90t131 32q103 0 176 -73l-28 -28q-29 31 -67.5 46t-81.5 15q-59 0 -107.5 -25.5t-77 -74.5t-28.5 -116q0 -65 28.5 -114t77.5 -75.5t108 -26.5q43 0 82.5 15.5t70.5 46.5l28 -30q-37 -35 -84 -53.5
t-97 -18.5q-72 0 -130.5 32.5zM343 700h50l-85 -121h-41z" />
    <glyph glyph-name="Ccircumflex" unicode="&#x108;" horiz-adv-x="716" 
d="M228 34q-82 46 -127.5 128.5t-45.5 187.5t45.5 187.5t127 128.5t185.5 46q72 0 136 -27t113 -77l-30 -29q-44 44 -99.5 67.5t-118.5 23.5q-92 0 -164 -40.5t-111.5 -113t-39.5 -166.5t39.5 -166.5t111.5 -113t164 -40.5q63 0 120.5 23.5t102.5 67.5l29 -29
q-49 -51 -114 -77.5t-138 -26.5q-104 0 -186 46zM546 780h-48l-87 84l-88 -84h-48l117 117h37z" />
    <glyph glyph-name="ccircumflex" unicode="&#x109;" horiz-adv-x="529" 
d="M175.5 23.5q-58.5 32.5 -92 91t-33.5 132.5q0 76 33.5 134t91.5 90t131 32q103 0 176 -73l-28 -28q-29 31 -67.5 46t-81.5 15q-59 0 -107.5 -25.5t-77 -74.5t-28.5 -116q0 -65 28.5 -114t77.5 -75.5t108 -26.5q43 0 82.5 15.5t70.5 46.5l28 -30q-37 -35 -84 -53.5
t-97 -18.5q-72 0 -130.5 32.5zM446 579h-48l-96 88l-97 -88h-48l126 121h37z" />
    <glyph glyph-name="Cdotaccent" unicode="&#x10a;" horiz-adv-x="716" 
d="M228 34q-82 46 -127.5 128.5t-45.5 187.5t45.5 187.5t127 128.5t185.5 46q72 0 136 -27t113 -77l-30 -29q-44 44 -99.5 67.5t-118.5 23.5q-92 0 -164 -40.5t-111.5 -113t-39.5 -166.5t39.5 -166.5t111.5 -113t164 -40.5q63 0 120.5 23.5t102.5 67.5l29 -29
q-49 -51 -114 -77.5t-138 -26.5q-104 0 -186 46zM384.5 826.5q-10.5 10.5 -10.5 26.5t10.5 27t27.5 11q16 0 26.5 -11t10.5 -27t-10.5 -26.5t-26.5 -10.5q-17 0 -27.5 10.5z" />
    <glyph glyph-name="cdotaccent" unicode="&#x10b;" horiz-adv-x="529" 
d="M175.5 23.5q-58.5 32.5 -92 91t-33.5 132.5q0 76 33.5 134t91.5 90t131 32q103 0 176 -73l-28 -28q-29 31 -67.5 46t-81.5 15q-59 0 -107.5 -25.5t-77 -74.5t-28.5 -116q0 -65 28.5 -114t77.5 -75.5t108 -26.5q43 0 82.5 15.5t70.5 46.5l28 -30q-37 -35 -84 -53.5
t-97 -18.5q-72 0 -130.5 32.5zM275.5 621q-10.5 10 -10.5 26t11 26.5t27 10.5t26.5 -10.5t10.5 -26.5t-10.5 -26t-26.5 -10q-17 0 -27.5 10z" />
    <glyph glyph-name="Ccaron" unicode="&#x10c;" horiz-adv-x="716" 
d="M228 34q-82 46 -127.5 128.5t-45.5 187.5t45.5 187.5t127 128.5t185.5 46q72 0 136 -27t113 -77l-30 -29q-44 44 -99.5 67.5t-118.5 23.5q-92 0 -164 -40.5t-111.5 -113t-39.5 -166.5t39.5 -166.5t111.5 -113t164 -40.5q63 0 120.5 23.5t102.5 67.5l29 -29
q-49 -51 -114 -77.5t-138 -26.5q-104 0 -186 46zM499 898h48l-117 -117h-37l-117 117h48l88 -84z" />
    <glyph glyph-name="ccaron" unicode="&#x10d;" horiz-adv-x="529" 
d="M175.5 23.5q-58.5 32.5 -92 91t-33.5 132.5q0 76 33.5 134t91.5 90t131 32q103 0 176 -73l-28 -28q-29 31 -67.5 46t-81.5 15q-59 0 -107.5 -25.5t-77 -74.5t-28.5 -116q0 -65 28.5 -114t77.5 -75.5t108 -26.5q43 0 82.5 15.5t70.5 46.5l28 -30q-37 -35 -84 -53.5
t-97 -18.5q-72 0 -130.5 32.5zM399 700h48l-126 -121h-37l-126 121h48l97 -89z" />
    <glyph glyph-name="Dcaron" unicode="&#x10e;" horiz-adv-x="746" 
d="M520 655.5q81 -44.5 126 -124t45 -181.5t-45 -181.5t-126 -124t-185 -44.5h-234v700h234q104 0 185 -44.5zM497 82q71 39 110.5 109t39.5 159t-40 159t-111 109t-161 39h-190v-614h190q91 0 162 39zM415 898h48l-117 -117h-37l-117 117h48l88 -84z" />
    <glyph glyph-name="dcaron" unicode="&#x10f;" horiz-adv-x="642" 
d="M508 700h42v-700h-40l-1 109q-28 -54 -84.5 -85.5t-127.5 -31.5t-127.5 32.5t-88 90.5t-31.5 132t31.5 132t88 90.5t127.5 32.5t127 -31t84 -85v314zM637 700h42l-48 -146h-32zM408.5 58q47.5 27 73.5 76t26 113t-26 113t-73.5 76t-108.5 27t-108 -27t-73.5 -76
t-26.5 -113t26 -113t73.5 -76t108.5 -27t108.5 27z" />
    <glyph glyph-name="Dcroat" unicode="&#x110;" horiz-adv-x="752" 
d="M526 655.5q81 -44.5 126 -124t45 -181.5t-45 -181.5t-126 -124t-185 -44.5h-233v334h-78v42h78v324h233q104 0 185 -44.5zM503 81.5q71 38.5 110.5 108.5t39.5 160t-39.5 160t-110.5 108.5t-162 38.5h-189v-281h229v-42h-229v-291h189q91 0 162 38.5z" />
    <glyph glyph-name="dcroat" unicode="&#x111;" horiz-adv-x="632" 
d="M619 587h-69v-587h-40l-1 109q-28 -54 -84.5 -85.5t-127.5 -31.5t-127.5 32.5t-88 90.5t-31.5 132t31.5 132t88 90.5t127.5 32.5t127 -31t84 -85v201h-138v34h138v79h42v-79h69v-34zM408.5 58q47.5 27 73.5 76t26 113t-26 113t-73.5 76t-108.5 27t-108 -27t-73.5 -76
t-26.5 -113t26 -113t73.5 -76t108.5 -27t108.5 27z" />
    <glyph glyph-name="Emacron" unicode="&#x112;" horiz-adv-x="653" 
d="M145 42h449v-42h-493v700h480v-42h-436v-283h415v-42h-415v-291zM211 848h281v-35h-281v35z" />
    <glyph glyph-name="emacron" unicode="&#x113;" horiz-adv-x="587" 
d="M428.5 472.5q56.5 -30.5 87 -85.5t30.5 -127q0 -19 -1 -29h-453q7 -93 63 -147t145 -54q55 0 105 22t77 58l30 -25q-35 -44 -91 -69.5t-121 -25.5q-72 0 -129 33t-89 91.5t-32 132.5t31.5 132t88 91t128.5 33q74 0 130.5 -30.5zM155 410.5q-56 -53.5 -63 -140.5h413
q0 57 -26.5 101t-73 68.5t-107.5 24.5q-87 0 -143 -53.5zM169 642h259v-35h-259v35z" />
    <glyph glyph-name="Ebreve" unicode="&#x114;" horiz-adv-x="653" 
d="M145 42h449v-42h-493v700h480v-42h-436v-283h415v-42h-415v-291zM264 813q-34 32 -34 82h36q0 -35 23.5 -56.5t61.5 -21.5t61 21.5t23 56.5h37q0 -49 -34 -81.5t-87 -32.5t-87 32z" />
    <glyph glyph-name="ebreve" unicode="&#x115;" horiz-adv-x="587" 
d="M428.5 472.5q56.5 -30.5 87 -85.5t30.5 -127q0 -19 -1 -29h-453q7 -93 63 -147t145 -54q55 0 105 22t77 58l30 -25q-35 -44 -91 -69.5t-121 -25.5q-72 0 -129 33t-89 91.5t-32 132.5t31.5 132t88 91t128.5 33q74 0 130.5 -30.5zM155 410.5q-56 -53.5 -63 -140.5h413
q0 57 -26.5 101t-73 68.5t-107.5 24.5q-87 0 -143 -53.5zM212 623q-34 30 -34 77h35q0 -32 24 -52.5t62 -20.5t61.5 20.5t23.5 52.5h36q0 -46 -34 -76.5t-87 -30.5t-87 30z" />
    <glyph glyph-name="Edotaccent" unicode="&#x116;" horiz-adv-x="653" 
d="M145 42h449v-42h-493v700h480v-42h-436v-283h415v-42h-415v-291zM324.5 826.5q-10.5 10.5 -10.5 26.5t10.5 27t27.5 11q16 0 26.5 -11t10.5 -27t-10.5 -26.5t-26.5 -10.5q-17 0 -27.5 10.5z" />
    <glyph glyph-name="edotaccent" unicode="&#x117;" horiz-adv-x="587" 
d="M428.5 472.5q56.5 -30.5 87 -85.5t30.5 -127q0 -19 -1 -29h-453q7 -93 63 -147t145 -54q55 0 105 22t77 58l30 -25q-35 -44 -91 -69.5t-121 -25.5q-72 0 -129 33t-89 91.5t-32 132.5t31.5 132t88 91t128.5 33q74 0 130.5 -30.5zM155 410.5q-56 -53.5 -63 -140.5h413
q0 57 -26.5 101t-73 68.5t-107.5 24.5q-87 0 -143 -53.5zM271.5 621q-10.5 10 -10.5 26t11 26.5t27 10.5t26.5 -10.5t10.5 -26.5t-10.5 -26t-26.5 -10q-17 0 -27.5 10z" />
    <glyph glyph-name="Eogonek" unicode="&#x118;" horiz-adv-x="653" 
d="M666 -142q-49 -43 -112 -43q-45 0 -71.5 23.5t-26.5 63.5q0 56 63 98h-418v700h480v-42h-436v-283h415v-42h-415v-291h449v-42q-50 -21 -73.5 -44t-23.5 -50q0 -25 16 -38.5t45 -13.5q50 0 87 33z" />
    <glyph glyph-name="eogonek" unicode="&#x119;" horiz-adv-x="588" 
d="M428.5 472.5q56.5 -30.5 87 -85.5t30.5 -127q0 -19 -1 -29h-453q7 -94 63 -147.5t145 -53.5q55 0 105 22t78 58l30 -25q-26 -33 -58.5 -52t-72.5 -33q-96 -35 -96 -94q0 -25 16 -39t45 -14q48 0 87 34l22 -28q-49 -43 -113 -43q-44 0 -70 23t-26 63q0 52 47 88
q-71 1 -126.5 34.5t-86.5 91t-31 131.5t31.5 132t88 91t128.5 33q74 0 130.5 -30.5zM155 410.5q-56 -53.5 -63 -140.5h414q0 57 -26.5 101t-73.5 68.5t-108 24.5q-87 0 -143 -53.5z" />
    <glyph glyph-name="Ecaron" unicode="&#x11a;" horiz-adv-x="653" 
d="M145 42h449v-42h-493v700h480v-42h-436v-283h415v-42h-415v-291zM439 898h48l-117 -117h-37l-117 117h48l88 -84z" />
    <glyph glyph-name="ecaron" unicode="&#x11b;" horiz-adv-x="587" 
d="M428.5 472.5q56.5 -30.5 87 -85.5t30.5 -127q0 -19 -1 -29h-453q7 -93 63 -147t145 -54q55 0 105 22t77 58l30 -25q-35 -44 -91 -69.5t-121 -25.5q-72 0 -129 33t-89 91.5t-32 132.5t31.5 132t88 91t128.5 33q74 0 130.5 -30.5zM155 410.5q-56 -53.5 -63 -140.5h413
q0 57 -26.5 101t-73 68.5t-107.5 24.5q-87 0 -143 -53.5zM395 700h48l-126 -121h-37l-126 121h48l97 -89z" />
    <glyph glyph-name="Gcircumflex" unicode="&#x11c;" horiz-adv-x="744" 
d="M678 360v-261q-54 -54 -121 -82t-143 -28q-105 0 -186.5 45.5t-127 127.5t-45.5 188t45.5 188t127.5 127.5t188 45.5q144 0 250 -104l-29 -31q-45 45 -101.5 69t-119.5 24q-93 0 -165 -40t-112 -112.5t-40 -166.5q0 -93 40 -165.5t111.5 -113t163.5 -40.5q63 0 121.5 23
t99.5 64v200h-252v42h295zM541 780h-48l-87 84l-88 -84h-48l117 117h37z" />
    <glyph glyph-name="gcircumflex" unicode="&#x11d;" horiz-adv-x="607" 
d="M511 -15.5q40 -42.5 40 -103.5q0 -53 -31 -93.5t-87 -63t-129 -22.5q-70 0 -125.5 25t-86 69.5t-30.5 100.5h42q0 -44 25.5 -79.5t71 -55.5t103.5 -20q93 0 149 38t56 101t-56 101t-149 38q-77 0 -134.5 29.5t-88.5 83.5t-31 127q0 68 33 123t91 86.5t129 31.5
q42 0 84 -12t70 -32l63 76l31 -24l-64 -76q38 -46 53.5 -84t15.5 -89q0 -77 -44 -137t-114 -79q73 -17 113 -59.5zM148.5 113.5q56.5 -53.5 155.5 -53.5q58 0 106 26.5t76 72.5t28 101q0 60 -26 105.5t-74 70.5t-110 25q-61 0 -109.5 -26t-75.5 -71.5t-27 -103.5
q0 -93 56.5 -146.5zM447 580h-48l-96 88l-97 -88h-48l126 121h37z" />
    <glyph glyph-name="Gbreve" unicode="&#x11e;" horiz-adv-x="744" 
d="M678 360v-261q-54 -54 -121 -82t-143 -28q-105 0 -186.5 45.5t-127 127.5t-45.5 188t45.5 188t127.5 127.5t188 45.5q144 0 250 -104l-29 -31q-45 45 -101.5 69t-119.5 24q-93 0 -165 -40t-112 -112.5t-40 -166.5q0 -93 40 -165.5t111.5 -113t163.5 -40.5q63 0 121.5 23
t99.5 64v200h-252v42h295zM319 813q-34 32 -34 82h36q0 -35 23.5 -56.5t61.5 -21.5t61 21.5t23 56.5h37q0 -49 -34 -81.5t-87 -32.5t-87 32z" />
    <glyph glyph-name="gbreve" unicode="&#x11f;" horiz-adv-x="607" 
d="M511 -15.5q40 -42.5 40 -103.5q0 -53 -31 -93.5t-87 -63t-129 -22.5q-70 0 -125.5 25t-86 69.5t-30.5 100.5h42q0 -44 25.5 -79.5t71 -55.5t103.5 -20q93 0 149 38t56 101t-56 101t-149 38q-77 0 -134.5 29.5t-88.5 83.5t-31 127q0 68 33 123t91 86.5t129 31.5
q42 0 84 -12t70 -32l63 76l31 -24l-64 -76q38 -46 53.5 -84t15.5 -89q0 -77 -44 -137t-114 -79q73 -17 113 -59.5zM148.5 113.5q56.5 -53.5 155.5 -53.5q58 0 106 26.5t76 72.5t28 101q0 60 -26 105.5t-74 70.5t-110 25q-61 0 -109.5 -26t-75.5 -71.5t-27 -103.5
q0 -93 56.5 -146.5zM217 623q-34 30 -34 77h35q0 -32 24 -52.5t62 -20.5t61.5 20.5t23.5 52.5h36q0 -46 -34 -76.5t-87 -30.5t-87 30z" />
    <glyph glyph-name="Gdotaccent" unicode="&#x120;" horiz-adv-x="744" 
d="M678 360v-261q-54 -54 -121 -82t-143 -28q-105 0 -186.5 45.5t-127 127.5t-45.5 188t45.5 188t127.5 127.5t188 45.5q144 0 250 -104l-29 -31q-45 45 -101.5 69t-119.5 24q-93 0 -165 -40t-112 -112.5t-40 -166.5q0 -93 40 -165.5t111.5 -113t163.5 -40.5q63 0 121.5 23
t99.5 64v200h-252v42h295zM379.5 826.5q-10.5 10.5 -10.5 26.5t10.5 27t27.5 11q16 0 26.5 -11t10.5 -27t-10.5 -26.5t-26.5 -10.5q-17 0 -27.5 10.5z" />
    <glyph glyph-name="gdotaccent" unicode="&#x121;" horiz-adv-x="607" 
d="M511 -15.5q40 -42.5 40 -103.5q0 -53 -31 -93.5t-87 -63t-129 -22.5q-70 0 -125.5 25t-86 69.5t-30.5 100.5h42q0 -44 25.5 -79.5t71 -55.5t103.5 -20q93 0 149 38t56 101t-56 101t-149 38q-77 0 -134.5 29.5t-88.5 83.5t-31 127q0 68 33 123t91 86.5t129 31.5
q42 0 84 -12t70 -32l63 76l31 -24l-64 -76q38 -46 53.5 -84t15.5 -89q0 -77 -44 -137t-114 -79q73 -17 113 -59.5zM148.5 113.5q56.5 -53.5 155.5 -53.5q58 0 106 26.5t76 72.5t28 101q0 60 -26 105.5t-74 70.5t-110 25q-61 0 -109.5 -26t-75.5 -71.5t-27 -103.5
q0 -93 56.5 -146.5zM276.5 621q-10.5 10 -10.5 26t11 26.5t27 10.5t26.5 -10.5t10.5 -26.5t-10.5 -26t-26.5 -10q-17 0 -27.5 10z" />
    <glyph glyph-name="uni0122" unicode="&#x122;" horiz-adv-x="744" 
d="M678 360v-261q-54 -54 -121 -82t-143 -28q-105 0 -186.5 45.5t-127 127.5t-45.5 188t45.5 188t127.5 127.5t188 45.5q144 0 250 -104l-29 -31q-45 45 -101.5 69t-119.5 24q-93 0 -165 -40t-112 -112.5t-40 -166.5q0 -93 40 -165.5t111.5 -113t163.5 -40.5q63 0 121.5 23
t99.5 64v200h-252v42h295zM446.5 -87.5q9.5 -8.5 9.5 -22.5q0 -10 -6.5 -28t-33.5 -76h-33l28 77q-20 6 -20 27q0 14 10 22.5t23 8.5t22.5 -8.5z" />
    <glyph glyph-name="uni0123" unicode="&#x123;" horiz-adv-x="607" 
d="M511 -15.5q40 -42.5 40 -103.5q0 -53 -31 -93.5t-87 -63t-129 -22.5q-70 0 -125.5 25t-86 69.5t-30.5 100.5h42q0 -44 25.5 -79.5t71 -55.5t103.5 -20q93 0 149 38t56 101t-56 101t-149 38q-77 0 -134.5 29.5t-88.5 83.5t-31 127q0 68 33 123t91 86.5t129 31.5
q42 0 84 -12t70 -32l63 76l31 -24l-64 -76q38 -46 53.5 -84t15.5 -89q0 -77 -44 -137t-114 -79q73 -17 113 -59.5zM148.5 113.5q56.5 -53.5 155.5 -53.5q58 0 106 26.5t76 72.5t28 101q0 60 -26 105.5t-74 70.5t-110 25q-61 0 -109.5 -26t-75.5 -71.5t-27 -103.5
q0 -93 56.5 -146.5zM323 623q7 -9 7 -21q0 -14 -10 -24t-24 -10q-15 0 -24.5 10t-9.5 25t8.5 44t31.5 92h34l-31 -105q11 -2 18 -11z" />
    <glyph glyph-name="Hcircumflex" unicode="&#x124;" horiz-adv-x="753" 
d="M608 700h44v-700h-44v338h-463v-338h-44v700h44v-320h463v320zM511 780h-48l-87 84l-88 -84h-48l117 117h37z" />
    <glyph glyph-name="hcircumflex" unicode="&#x125;" horiz-adv-x="602" 
d="M470.5 444q55.5 -57 55.5 -159v-285h-42v283q0 86 -44 132t-125 46q-55 0 -98.5 -24.5t-67.5 -67t-24 -94.5v-275h-42v700h42v-302q29 48 79.5 75.5t112.5 27.5q98 0 153.5 -57zM248 785h-48l-96 88l-97 -88h-48l126 121h37z" />
    <glyph glyph-name="Hbar" unicode="&#x126;" horiz-adv-x="763" 
d="M732 573v-39h-75v-534h-44v337h-463v-337h-44v534h-74v39h74v127h44v-127h463v127h44v-127h75zM150 379h463v155h-463v-155z" />
    <glyph glyph-name="hbar" unicode="&#x127;" horiz-adv-x="602" 
d="M470.5 444q55.5 -57 55.5 -160v-284h-42v283q0 85 -44.5 131.5t-125.5 46.5q-54 0 -97.5 -24.5t-67.5 -67t-24 -94.5v-275h-42v585h-67v36h67v79h42v-79h147v-36h-147v-187q30 48 80.5 75.5t111.5 27.5q98 0 153.5 -57z" />
    <glyph glyph-name="Itilde" unicode="&#x128;" horiz-adv-x="246" 
d="M101 700h44v-700h-44v700zM157.5 806q-15.5 5 -38.5 18q-25 14 -37 18.5t-23 4.5q-25 0 -37 -35l-28 12q8 28 24.5 43.5t40.5 15.5q14 0 28.5 -5t44.5 -21q22 -12 33.5 -16t21.5 -4q26 0 38 36l29 -10q-7 -30 -24.5 -46t-41.5 -16q-15 0 -30.5 5z" />
    <glyph glyph-name="itilde" unicode="&#x129;" horiz-adv-x="207" 
d="M83 494h42v-494h-42v494zM132 619q-13 5 -34 18q-22 14 -31.5 18t-19.5 4q-27 0 -37 -35l-29 12q17 59 65 59q14 0 26.5 -5t38.5 -21q19 -11 28 -15t19 -4q25 0 37 36l29 -11q-7 -30 -24.5 -45.5t-40.5 -15.5q-14 0 -27 5z" />
    <glyph glyph-name="Imacron" unicode="&#x12a;" horiz-adv-x="246" 
d="M101 700h44v-700h-44v700zM-7 848h261v-35h-261v35z" />
    <glyph glyph-name="imacron" unicode="&#x12b;" horiz-adv-x="207" 
d="M83 494h42v-494h-42v494zM-8 642h222v-35h-222v35z" />
    <glyph glyph-name="Ibreve" unicode="&#x12c;" horiz-adv-x="246" 
d="M101 700h44v-700h-44v700zM37 813q-34 32 -34 82h36q0 -35 23.5 -56.5t61.5 -21.5t61 21.5t23 56.5h37q0 -49 -34 -81.5t-87 -32.5t-87 32z" />
    <glyph glyph-name="ibreve" unicode="&#x12d;" horiz-adv-x="207" 
d="M83 494h42v-494h-42v494zM26 614q-29 30 -29 77h34q0 -33 19 -53t54 -20q34 0 53 20t19 53h35q0 -47 -29 -77t-78 -30t-78 30z" />
    <glyph glyph-name="Iogonek" unicode="&#x12e;" horiz-adv-x="246" 
d="M217 -142q-49 -43 -112 -43q-45 0 -71.5 23.5t-26.5 63.5q0 34 24 63.5t70 51.5v683h44v-700q-50 -21 -73.5 -44t-23.5 -50q0 -25 16 -38.5t45 -13.5q50 0 87 33z" />
    <glyph glyph-name="iogonek" unicode="&#x12f;" horiz-adv-x="207" 
d="M76.5 621q-10.5 10 -10.5 26t11 26.5t27 10.5t26.5 -10.5t10.5 -26.5t-10.5 -26t-26.5 -10q-17 0 -27.5 10zM185 -141q-45 -43 -100 -43q-39 0 -61.5 21.5t-22.5 58.5q0 69 82 119v479h42v-494q-85 -39 -85 -98q0 -24 13 -36.5t36 -12.5q19 0 39 9t36 25z" />
    <glyph glyph-name="Idotaccent" unicode="&#x130;" horiz-adv-x="246" 
d="M101 700h44v-700h-44v700zM96.5 826.5q-10.5 10.5 -10.5 26.5t10.5 27t27.5 11q16 0 26.5 -11t10.5 -27t-10.5 -26.5t-26.5 -10.5q-17 0 -27.5 10.5z" />
    <glyph glyph-name="dotlessi" unicode="&#x131;" horiz-adv-x="207" 
d="M83 494h42v-494h-42v494z" />
    <glyph glyph-name="IJ" unicode="&#x132;" horiz-adv-x="909" 
d="M101 700h44v-700h-44v700zM816 700v-440q0 -80 -34 -141.5t-95.5 -95t-140.5 -33.5q-78 0 -139.5 34.5t-95.5 96t-34 140.5h42q0 -67 29 -119t80.5 -81t117.5 -29q67 0 118 28.5t79.5 80.5t28.5 120v396h-275v43h319z" />
    <glyph glyph-name="ij" unicode="&#x133;" horiz-adv-x="414" 
d="M76.5 621.5q-10.5 10.5 -10.5 26.5t10.5 27t27.5 11q16 0 27 -11t11 -27t-11 -26.5t-27 -10.5q-17 0 -27.5 10.5zM83 494h42v-494h-42v494zM283.5 621.5q-10.5 10.5 -10.5 26.5t10.5 27t27.5 11q16 0 27 -11t11 -27t-11 -26.5t-27 -10.5q-17 0 -27.5 10.5zM112 -227
l15 35q34 -21 75 -21q47 0 67.5 29t20.5 98v580h42v-580q0 -87 -31 -127t-99 -40q-42 0 -90 26z" />
    <glyph glyph-name="Jcircumflex" unicode="&#x134;" horiz-adv-x="663" 
d="M570 700v-440q0 -80 -34 -141.5t-95.5 -95t-140.5 -33.5q-78 0 -139.5 34.5t-95.5 96t-34 140.5h42q0 -67 29 -119t80.5 -81t117.5 -29q67 0 118 28.5t79.5 80.5t28.5 120v396h-275v43h319zM539 780h-48l-82 83l-82 -83h-49l112 117h37z" />
    <glyph glyph-name="jcircumflex" unicode="&#x135;" horiz-adv-x="207" 
d="M-95 -227l15 35q34 -21 75 -21q47 0 67.5 29t20.5 98v580h42v-580q0 -87 -31 -127t-99 -40q-42 0 -90 26zM229 579h-46l-80 88l-79 -88h-46l107 121h37z" />
    <glyph glyph-name="uni0136" unicode="&#x136;" horiz-adv-x="584" 
d="M584 0h-62l-377 350v-350h-44v700h44v-322l348 322h61l-362 -335zM342.5 -87.5q9.5 -8.5 9.5 -22.5q0 -10 -6.5 -28t-33.5 -76h-33l28 77q-20 6 -20 27q0 14 10 22.5t23 8.5t22.5 -8.5z" />
    <glyph glyph-name="uni0137" unicode="&#x137;" horiz-adv-x="461" 
d="M453 0h-60l-268 236v-236h-42v700h42v-433l241 227h57l-257 -242zM261.5 -87.5q9.5 -8.5 9.5 -22.5q0 -10 -6.5 -28t-33.5 -76h-33l28 77q-20 6 -20 27q0 14 10 22.5t23 8.5t22.5 -8.5z" />
    <glyph glyph-name="kgreenlandic" unicode="&#x138;" horiz-adv-x="461" 
d="M453 0h-60l-268 235v-235h-42v494h42v-226l241 226h57l-257 -241z" />
    <glyph glyph-name="Lacute" unicode="&#x139;" horiz-adv-x="564" 
d="M101 700h44v-657h401v-43h-445v700zM176 897h50l-86 -117h-41z" />
    <glyph glyph-name="lacute" unicode="&#x13a;" horiz-adv-x="207" 
d="M83 700h42v-700h-42v700zM144 906h50l-85 -121h-41z" />
    <glyph glyph-name="uni013B" unicode="&#x13b;" horiz-adv-x="564" 
d="M101 700h44v-657h401v-43h-445v700zM347.5 -87.5q9.5 -8.5 9.5 -22.5q0 -10 -6.5 -28t-33.5 -76h-33l28 77q-20 6 -20 27q0 14 10 22.5t23 8.5t22.5 -8.5z" />
    <glyph glyph-name="uni013C" unicode="&#x13c;" horiz-adv-x="207" 
d="M83 700h42v-700h-42v700zM129.5 -87.5q9.5 -8.5 9.5 -22.5q0 -10 -6.5 -28t-33.5 -76h-33l28 77q-20 6 -20 27q0 14 10 22.5t23 8.5t22.5 -8.5z" />
    <glyph glyph-name="Lcaron" unicode="&#x13d;" horiz-adv-x="564" 
d="M101 700h44v-657h401v-43h-445v700zM430 700h46l-53 -155h-37z" />
    <glyph glyph-name="lcaron" unicode="&#x13e;" horiz-adv-x="217" 
d="M83 700h42v-700h-42v700zM212 700h42l-48 -146h-32z" />
    <glyph glyph-name="Ldot" unicode="&#x13f;" horiz-adv-x="564" 
d="M145 700v-657h401v-43h-445v700h44zM335 342q-10 10 -10 25t10 24.5t25 9.5t25 -9.5t10 -24.5t-10 -25t-25 -10t-25 10z" />
    <glyph glyph-name="ldot" unicode="&#x140;" horiz-adv-x="291" 
d="M83 700h42v-700h-42v700zM221 292.5q-10 9.5 -10 23.5q0 15 10 24.5t24 9.5q15 0 24.5 -9.5t9.5 -24.5q0 -14 -9.5 -23.5t-24.5 -9.5q-14 0 -24 9.5z" />
    <glyph glyph-name="Lslash" unicode="&#x141;" horiz-adv-x="568" 
d="M149 43h401v-43h-444v307l-79 -32v39l79 33v353h43v-335l164 69v-42l-164 -67v-282z" />
    <glyph glyph-name="lslash" unicode="&#x142;" horiz-adv-x="249" 
d="M223 414v-39l-78 -31v-344h-42v327l-77 -30v39l77 30v334h42v-317z" />
    <glyph glyph-name="Nacute" unicode="&#x143;" horiz-adv-x="753" 
d="M609 700h43v-700h-46l-461 633v-633h-44v700h48l460 -631v631zM425 897h50l-86 -117h-41z" />
    <glyph glyph-name="nacute" unicode="&#x144;" horiz-adv-x="602" 
d="M470.5 444q55.5 -57 55.5 -159v-285h-42v283q0 86 -44 132t-125 46q-55 0 -98.5 -24.5t-67.5 -67t-24 -94.5v-275h-42v494h40v-97q29 48 80 76t114 28q98 0 153.5 -57zM350 700h50l-85 -121h-41z" />
    <glyph glyph-name="uni0145" unicode="&#x145;" horiz-adv-x="753" 
d="M609 700h43v-700h-46l-461 633v-633h-44v700h48l460 -631v631zM393.5 -87.5q9.5 -8.5 9.5 -22.5q0 -10 -6.5 -28t-33.5 -76h-33l28 77q-20 6 -20 27q0 14 10 22.5t23 8.5t22.5 -8.5z" />
    <glyph glyph-name="uni0146" unicode="&#x146;" horiz-adv-x="602" 
d="M470.5 444q55.5 -57 55.5 -159v-285h-42v283q0 86 -44 132t-125 46q-55 0 -98.5 -24.5t-67.5 -67t-24 -94.5v-275h-42v494h40v-97q29 48 80 76t114 28q98 0 153.5 -57zM330.5 -87.5q9.5 -8.5 9.5 -22.5q0 -10 -6.5 -28t-33.5 -76h-33l28 77q-20 6 -20 27q0 14 10 22.5
t23 8.5t22.5 -8.5z" />
    <glyph glyph-name="Ncaron" unicode="&#x147;" horiz-adv-x="753" 
d="M609 700h43v-700h-46l-461 633v-633h-44v700h48l460 -631v631zM460 898h48l-117 -117h-37l-117 117h48l88 -84z" />
    <glyph glyph-name="ncaron" unicode="&#x148;" horiz-adv-x="602" 
d="M470.5 444q55.5 -57 55.5 -159v-285h-42v283q0 86 -44 132t-125 46q-55 0 -98.5 -24.5t-67.5 -67t-24 -94.5v-275h-42v494h40v-97q29 48 80 76t114 28q98 0 153.5 -57zM406 700h48l-126 -121h-37l-126 121h48l97 -89z" />
    <glyph glyph-name="napostrophe" unicode="&#x149;" horiz-adv-x="697" 
d="M564.5 444q55.5 -57 55.5 -159v-285h-42v283q0 86 -44 132t-125 46q-55 0 -98.5 -24.5t-67.5 -67t-24 -94.5v-275h-42v494h40v-97q29 48 80 76t114 28q98 0 153.5 -57zM148.5 697.5q9.5 -9.5 9.5 -24.5q0 -14 -8.5 -43t-31.5 -91h-33l30 104q-11 2 -17.5 10.5t-6.5 20.5
q0 14 9.5 23.5t24.5 9.5q14 0 23.5 -9.5z" />
    <glyph glyph-name="Eng" unicode="&#x14a;" horiz-adv-x="753" 
d="M652 700v-738q0 -83 -29 -120t-94 -37q-25 0 -48.5 7.5t-39.5 18.5l10 38q20 -12 37.5 -17.5t38.5 -5.5q46 0 64 26.5t18 91.5v33l-464 636v-633h-44v700h48l460 -631v631h43z" />
    <glyph glyph-name="eng" unicode="&#x14b;" horiz-adv-x="602" 
d="M471 444q55 -57 55 -159v-300q0 -88 -29.5 -130t-91.5 -42q-23 0 -42 5t-45 18l14 37q36 -20 72 -20q44 0 62 30t18 102v298q0 86 -43.5 132t-125.5 46q-54 0 -97.5 -24t-68 -66.5t-24.5 -95.5v-275h-42v494h40v-100q28 50 79.5 78.5t114.5 28.5q99 0 154 -57z" />
    <glyph glyph-name="Omacron" unicode="&#x14c;" horiz-adv-x="816" 
d="M225.5 34q-80.5 46 -125.5 128.5t-45 187.5t45 187.5t125.5 128.5t182.5 46t182.5 -46t125.5 -128.5t45 -187.5t-45 -187.5t-125.5 -128.5t-182.5 -46t-182.5 46zM567.5 70.5q70.5 40.5 110 113.5t39.5 166t-39.5 166t-110 113.5t-159.5 40.5t-159.5 -40.5t-110 -113.5
t-39.5 -166t39.5 -166t110 -113.5t159.5 -40.5t159.5 40.5zM267 848h281v-35h-281v35z" />
    <glyph glyph-name="omacron" unicode="&#x14d;" horiz-adv-x="605" 
d="M172.5 24q-57.5 33 -90 91.5t-32.5 131.5t32.5 131.5t90 91.5t129.5 33q73 0 130.5 -33t90 -91.5t32.5 -131.5t-32.5 -131.5t-90 -91.5t-130.5 -33q-72 0 -129.5 33zM410 59q48 28 75.5 77.5t27.5 110.5t-27.5 110.5t-75.5 77.5t-108 28t-108 -28t-75 -77.5t-27 -110.5
t27 -110.5t75 -77.5t108 -28t108 28zM173 642h259v-35h-259v35z" />
    <glyph glyph-name="Obreve" unicode="&#x14e;" horiz-adv-x="816" 
d="M225.5 34q-80.5 46 -125.5 128.5t-45 187.5t45 187.5t125.5 128.5t182.5 46t182.5 -46t125.5 -128.5t45 -187.5t-45 -187.5t-125.5 -128.5t-182.5 -46t-182.5 46zM567.5 70.5q70.5 40.5 110 113.5t39.5 166t-39.5 166t-110 113.5t-159.5 40.5t-159.5 -40.5t-110 -113.5
t-39.5 -166t39.5 -166t110 -113.5t159.5 -40.5t159.5 40.5zM321 813q-34 32 -34 82h36q0 -35 23.5 -56.5t61.5 -21.5t61 21.5t23 56.5h37q0 -49 -34 -81.5t-87 -32.5t-87 32z" />
    <glyph glyph-name="obreve" unicode="&#x14f;" horiz-adv-x="605" 
d="M172.5 24q-57.5 33 -90 91.5t-32.5 131.5t32.5 131.5t90 91.5t129.5 33q73 0 130.5 -33t90 -91.5t32.5 -131.5t-32.5 -131.5t-90 -91.5t-130.5 -33q-72 0 -129.5 33zM410 59q48 28 75.5 77.5t27.5 110.5t-27.5 110.5t-75.5 77.5t-108 28t-108 -28t-75 -77.5t-27 -110.5
t27 -110.5t75 -77.5t108 -28t108 28zM216 623q-34 30 -34 77h35q0 -32 24 -52.5t62 -20.5t61.5 20.5t23.5 52.5h36q0 -46 -34 -76.5t-87 -30.5t-87 30z" />
    <glyph glyph-name="Ohungarumlaut" unicode="&#x150;" horiz-adv-x="816" 
d="M225.5 34q-80.5 46 -125.5 128.5t-45 187.5t45 187.5t125.5 128.5t182.5 46t182.5 -46t125.5 -128.5t45 -187.5t-45 -187.5t-125.5 -128.5t-182.5 -46t-182.5 46zM567.5 70.5q70.5 40.5 110 113.5t39.5 166t-39.5 166t-110 113.5t-159.5 40.5t-159.5 -40.5t-110 -113.5
t-39.5 -166t39.5 -166t110 -113.5t159.5 -40.5t159.5 40.5zM385 906h49l-78 -121h-41zM515 906h50l-79 -121h-41z" />
    <glyph glyph-name="ohungarumlaut" unicode="&#x151;" horiz-adv-x="605" 
d="M172.5 24q-57.5 33 -90 91.5t-32.5 131.5t32.5 131.5t90 91.5t129.5 33q73 0 130.5 -33t90 -91.5t32.5 -131.5t-32.5 -131.5t-90 -91.5t-130.5 -33q-72 0 -129.5 33zM410 59q48 28 75.5 77.5t27.5 110.5t-27.5 110.5t-75.5 77.5t-108 28t-108 -28t-75 -77.5t-27 -110.5
t27 -110.5t75 -77.5t108 -28t108 28zM278 700h50l-77 -121h-40zM409 700h49l-78 -121h-40z" />
    <glyph glyph-name="OE" unicode="&#x152;" horiz-adv-x="969" 
d="M909 42v-42h-428q-40 -5 -66 -5q-109 0 -190 43.5t-125.5 124t-44.5 187.5t44.5 187.5t125.5 124t190 43.5q36 0 71 -5h410v-42h-371v-283h351v-42h-351v-291h384zM481 43v615q-30 5 -66 5q-96 0 -167.5 -38.5t-110 -109.5t-38.5 -165q0 -96 39 -166.5t110.5 -108.5
t168.5 -38q13 0 64 6z" />
    <glyph glyph-name="oe" unicode="&#x153;" horiz-adv-x="1048" 
d="M888 472.5q56 -30.5 87 -85.5t31 -127q0 -19 -1 -29h-452q7 -94 62.5 -147t144.5 -53q54 0 104.5 21.5t78.5 57.5l30 -24q-34 -45 -90.5 -70t-121.5 -25q-82 0 -142.5 41.5t-86.5 112.5q-27 -72 -90 -113t-142 -41q-68 0 -125 31.5t-91 89.5t-34 135t34 135t91 89.5
t125 31.5q77 0 140 -40.5t91 -111.5q27 69 88 110.5t140 41.5q73 0 129 -30.5zM616.5 410.5q-56.5 -53.5 -63.5 -140.5h413q0 57 -26.5 101t-73 68.5t-107.5 24.5q-86 0 -142.5 -53.5zM407 58q48 27 76.5 76t28.5 113t-28.5 113t-76.5 76t-105 27t-105 -27t-76.5 -76
t-28.5 -113t28.5 -113t76.5 -76t105 -27t105 27z" />
    <glyph glyph-name="Racute" unicode="&#x154;" horiz-adv-x="697" 
d="M348 269h-203v-269h-44v700h303q68 0 119.5 -27t79.5 -76t28 -113t-28 -112.5t-79 -75.5t-119 -27l248 -269h-57zM537.5 610q-49.5 47 -133.5 47h-259v-346h259q84 0 133.5 47t49.5 126t-49.5 126zM394 897h50l-86 -117h-41z" />
    <glyph glyph-name="racute" unicode="&#x155;" horiz-adv-x="399" 
d="M394 472l-19 -36q-37 22 -83 22t-84.5 -27t-60.5 -74t-22 -103v-254h-42v494h40v-110q26 54 70.5 84.5t99.5 30.5q59 0 101 -27zM262 700h50l-85 -121h-41z" />
    <glyph glyph-name="uni0156" unicode="&#x156;" horiz-adv-x="697" 
d="M348 269h-203v-269h-44v700h303q68 0 119.5 -27t79.5 -76t28 -113t-28 -112.5t-79 -75.5t-119 -27l248 -269h-57zM537.5 610q-49.5 47 -133.5 47h-259v-346h259q84 0 133.5 47t49.5 126t-49.5 126zM377.5 -87.5q9.5 -8.5 9.5 -22.5q0 -10 -6.5 -28t-33.5 -76h-33l28 77
q-20 6 -20 27q0 14 10 22.5t23 8.5t22.5 -8.5z" />
    <glyph glyph-name="uni0157" unicode="&#x157;" horiz-adv-x="399" 
d="M394 472l-19 -36q-37 22 -83 22t-84.5 -27t-60.5 -74t-22 -103v-254h-42v494h40v-110q26 54 70.5 84.5t99.5 30.5q59 0 101 -27zM129.5 -87.5q9.5 -8.5 9.5 -22.5q0 -10 -6.5 -28t-33.5 -76h-33l28 77q-20 6 -20 27q0 14 10 22.5t23 8.5t22.5 -8.5z" />
    <glyph glyph-name="Rcaron" unicode="&#x158;" horiz-adv-x="697" 
d="M348 269h-203v-269h-44v700h303q68 0 119.5 -27t79.5 -76t28 -113t-28 -112.5t-79 -75.5t-119 -27l248 -269h-57zM537.5 610q-49.5 47 -133.5 47h-259v-346h259q84 0 133.5 47t49.5 126t-49.5 126zM429 898h48l-117 -117h-37l-117 117h48l88 -84z" />
    <glyph glyph-name="rcaron" unicode="&#x159;" horiz-adv-x="399" 
d="M394 472l-19 -36q-37 22 -83 22t-84.5 -27t-60.5 -74t-22 -103v-254h-42v494h40v-110q26 54 70.5 84.5t99.5 30.5q59 0 101 -27zM318 700h48l-126 -121h-37l-126 121h48l97 -89z" />
    <glyph glyph-name="Sacute" unicode="&#x15a;" horiz-adv-x="655" 
d="M170 24.5q-77 35.5 -120 94.5l30 30q34 -52 105 -85t148 -33q106 0 167.5 39.5t61.5 107.5q0 43 -21.5 71t-72 48t-144.5 38q-96 19 -151.5 44t-80.5 61t-25 90t32.5 95.5t92 64t137.5 22.5q76 0 140 -25.5t108 -74.5l-28 -31q-38 43 -95.5 66.5t-125.5 23.5
q-99 0 -158.5 -38.5t-59.5 -102.5q0 -42 21 -69.5t69 -47t133 -36.5q105 -21 163.5 -46t84 -61t25.5 -91q0 -88 -73.5 -139t-199.5 -51q-86 0 -163 35.5zM380 897h50l-86 -117h-41z" />
    <glyph glyph-name="sacute" unicode="&#x15b;" horiz-adv-x="502" 
d="M131 16q-58 25 -90 64l26 28q31 -35 81 -56t108 -21q73 0 117 27.5t44 73.5q0 28 -15 46t-50.5 31t-102.5 26q-73 14 -114 30.5t-59 41t-18 62.5q0 62 54 98t146 36q59 0 104.5 -16t85.5 -49l-24 -30q-36 29 -74.5 42.5t-90.5 13.5q-76 0 -117.5 -25t-41.5 -70
q0 -27 14 -43.5t46.5 -28.5t94.5 -24q77 -14 120.5 -31.5t63 -44t19.5 -66.5q0 -63 -55.5 -101.5t-146.5 -38.5q-67 0 -125 25zM292 700h50l-85 -121h-41z" />
    <glyph glyph-name="Scircumflex" unicode="&#x15c;" horiz-adv-x="655" 
d="M170 24.5q-77 35.5 -120 94.5l30 30q34 -52 105 -85t148 -33q106 0 167.5 39.5t61.5 107.5q0 43 -21.5 71t-72 48t-144.5 38q-96 19 -151.5 44t-80.5 61t-25 90t32.5 95.5t92 64t137.5 22.5q76 0 140 -25.5t108 -74.5l-28 -31q-38 43 -95.5 66.5t-125.5 23.5
q-99 0 -158.5 -38.5t-59.5 -102.5q0 -42 21 -69.5t69 -47t133 -36.5q105 -21 163.5 -46t84 -61t25.5 -91q0 -88 -73.5 -139t-199.5 -51q-86 0 -163 35.5zM462 780h-48l-87 84l-88 -84h-48l117 117h37z" />
    <glyph glyph-name="scircumflex" unicode="&#x15d;" horiz-adv-x="502" 
d="M131 16q-58 25 -90 64l26 28q31 -35 81 -56t108 -21q73 0 117 27.5t44 73.5q0 28 -15 46t-50.5 31t-102.5 26q-73 14 -114 30.5t-59 41t-18 62.5q0 62 54 98t146 36q59 0 104.5 -16t85.5 -49l-24 -30q-36 29 -74.5 42.5t-90.5 13.5q-76 0 -117.5 -25t-41.5 -70
q0 -27 14 -43.5t46.5 -28.5t94.5 -24q77 -14 120.5 -31.5t63 -44t19.5 -66.5q0 -63 -55.5 -101.5t-146.5 -38.5q-67 0 -125 25zM395 579h-48l-96 88l-97 -88h-48l126 121h37z" />
    <glyph glyph-name="Scedilla" unicode="&#x15e;" horiz-adv-x="655" 
d="M538 44.5q-68 -50.5 -186 -55.5l-11 -36h9q44 0 70.5 -21.5t26.5 -57.5t-29.5 -59.5t-74.5 -23.5q-58 0 -100 36l20 26q36 -27 79 -27q29 0 48.5 13.5t19.5 35.5q0 23 -18.5 35.5t-51.5 12.5q-15 0 -27 -3l-14 10l18 59q-81 4 -154 39t-113 91l30 30q34 -52 105 -85
t148 -33q106 0 167.5 39.5t61.5 107.5q0 43 -21.5 71t-72 48t-144.5 38q-96 19 -151.5 44t-80.5 61t-25 90t32.5 95.5t92 64t137.5 22.5q76 0 140 -25.5t108 -74.5l-28 -31q-38 43 -95.5 66.5t-125.5 23.5q-99 0 -158.5 -38.5t-59.5 -102.5q0 -42 21 -69.5t69 -47t133 -36.5
q105 -21 163.5 -46t84 -61t25.5 -91q0 -84 -68 -134.5z" />
    <glyph glyph-name="scedilla" unicode="&#x15f;" horiz-adv-x="502" 
d="M404 31q-54 -38 -143 -40l-12 -38h9q44 0 70 -21.5t26 -57.5t-29 -59.5t-74 -23.5q-58 0 -99 36l19 25q36 -27 79 -27q29 0 48.5 14t19.5 36q0 23 -18.5 35.5t-51.5 12.5q-15 0 -27 -3l-13 10l18 62q-58 5 -107 29t-78 59l26 28q31 -35 81 -56t108 -21q73 0 117 27.5
t44 73.5q0 28 -15 46t-50.5 31t-102.5 26q-73 14 -114 30.5t-59 41t-18 62.5q0 62 54 98t146 36q59 0 104.5 -16t85.5 -49l-24 -30q-36 29 -74.5 42.5t-90.5 13.5q-76 0 -117.5 -25t-41.5 -70q0 -27 14 -43.5t46.5 -28.5t94.5 -24q77 -14 120.5 -31.5t63 -44t19.5 -66.5
q0 -62 -54 -100z" />
    <glyph glyph-name="Scaron" unicode="&#x160;" horiz-adv-x="655" 
d="M170 24.5q-77 35.5 -120 94.5l30 30q34 -52 105 -85t148 -33q106 0 167.5 39.5t61.5 107.5q0 43 -21.5 71t-72 48t-144.5 38q-96 19 -151.5 44t-80.5 61t-25 90t32.5 95.5t92 64t137.5 22.5q76 0 140 -25.5t108 -74.5l-28 -31q-38 43 -95.5 66.5t-125.5 23.5
q-99 0 -158.5 -38.5t-59.5 -102.5q0 -42 21 -69.5t69 -47t133 -36.5q105 -21 163.5 -46t84 -61t25.5 -91q0 -88 -73.5 -139t-199.5 -51q-86 0 -163 35.5zM415 898h48l-117 -117h-37l-117 117h48l88 -84z" />
    <glyph glyph-name="scaron" unicode="&#x161;" horiz-adv-x="502" 
d="M131 16q-58 25 -90 64l26 28q31 -35 81 -56t108 -21q73 0 117 27.5t44 73.5q0 28 -15 46t-50.5 31t-102.5 26q-73 14 -114 30.5t-59 41t-18 62.5q0 62 54 98t146 36q59 0 104.5 -16t85.5 -49l-24 -30q-36 29 -74.5 42.5t-90.5 13.5q-76 0 -117.5 -25t-41.5 -70
q0 -27 14 -43.5t46.5 -28.5t94.5 -24q77 -14 120.5 -31.5t63 -44t19.5 -66.5q0 -63 -55.5 -101.5t-146.5 -38.5q-67 0 -125 25zM348 700h48l-126 -121h-37l-126 121h48l97 -89z" />
    <glyph glyph-name="uni0162" unicode="&#x162;" horiz-adv-x="589" 
d="M314 0l-14 -47h9q44 0 70.5 -21.5t26.5 -57.5t-29.5 -59.5t-74.5 -23.5q-58 0 -100 36l20 26q36 -27 79 -27q29 0 48.5 13.5t19.5 35.5q0 23 -18.5 35.5t-51.5 12.5q-15 0 -27 -3l-14 10l21 70h-6v657h-258v43h559v-43h-258v-657h-2z" />
    <glyph glyph-name="uni0163" unicode="&#x163;" horiz-adv-x="397" 
d="M331 -68.5q26 -21.5 26 -57.5t-29 -59.5t-74 -23.5q-58 0 -99 36l19 25q36 -27 79 -27q29 0 48.5 14t19.5 36q0 23 -18.5 35.5t-51.5 12.5q-15 0 -27 -3l-13 10l19 66q-48 11 -68 49t-20 103v307h-106v39h106v146l42 4v-150h171v-39h-171v-307q0 -59 19 -89t74 -30
q17 0 41 7t44 17l16 -35q-54 -27 -101 -27h-13l-12 -38h9q44 0 70 -21.5z" />
    <glyph glyph-name="Tcaron" unicode="&#x164;" horiz-adv-x="589" 
d="M574 700v-43h-258v-657h-43v657h-258v43h559zM383 898h48l-117 -117h-37l-117 117h48l88 -84z" />
    <glyph glyph-name="tcaron" unicode="&#x165;" horiz-adv-x="401" 
d="M391 651h43l-50 -153h-34zM316.5 35.5q23.5 6.5 45.5 17.5l16 -35q-56 -27 -101 -27q-71 0 -103 37t-32 120v307h-106v39h106v146l42 4v-150h124v-39h-124v-307q0 -64 21.5 -91.5t71.5 -27.5q16 0 39.5 6.5z" />
    <glyph glyph-name="Tbar" unicode="&#x166;" horiz-adv-x="589" 
d="M574 657h-258v-282h135v-37h-135v-338h-43v338h-135v37h135v282h-258v43h559v-43z" />
    <glyph glyph-name="tbar" unicode="&#x167;" horiz-adv-x="397" 
d="M378 18q-54 -27 -101 -27q-75 0 -105 39t-30 118v104h-81v37h81v166h-106v39h106v146l42 4v-150h171v-39h-171v-166h125v-37h-125v-104q0 -59 19 -89t74 -30q17 0 41 7t44 17z" />
    <glyph glyph-name="Utilde" unicode="&#x168;" horiz-adv-x="732" 
d="M224 24q-62 35 -96.5 98.5t-34.5 145.5v432h44v-432q0 -70 29 -123.5t81 -83.5t119 -30t119 30t81 83.5t29 123.5v432h44v-432q0 -82 -34.5 -145.5t-96.5 -98.5t-142 -35t-142 35zM399.5 806q-15.5 5 -38.5 18q-25 14 -37 18.5t-23 4.5q-25 0 -37 -35l-28 12
q8 28 24.5 43.5t40.5 15.5q14 0 28.5 -5t44.5 -21q22 -12 33.5 -16t21.5 -4q26 0 38 36l29 -10q-7 -30 -24.5 -46t-41.5 -16q-15 0 -30.5 5z" />
    <glyph glyph-name="utilde" unicode="&#x169;" 
d="M513 494v-494h-40v99q-29 -49 -79 -77.5t-112 -28.5q-96 0 -151 57t-55 159v285h42v-283q0 -86 43.5 -132t123.5 -46q54 0 96.5 24.5t66 67t23.5 94.5v275h42zM327 619q-14 5 -37 18q-25 14 -35 18t-21 4q-25 0 -37 -35l-28 12q8 29 24.5 44t40.5 15q14 0 27 -5t42 -21
q21 -11 31 -15t20 -4q25 0 37 36l29 -11q-7 -30 -24 -45.5t-41 -15.5q-14 0 -28 5z" />
    <glyph glyph-name="Umacron" unicode="&#x16a;" horiz-adv-x="732" 
d="M224 24q-62 35 -96.5 98.5t-34.5 145.5v432h44v-432q0 -70 29 -123.5t81 -83.5t119 -30t119 30t81 83.5t29 123.5v432h44v-432q0 -82 -34.5 -145.5t-96.5 -98.5t-142 -35t-142 35zM225 848h281v-35h-281v35z" />
    <glyph glyph-name="umacron" unicode="&#x16b;" 
d="M513 494v-494h-40v99q-29 -49 -79 -77.5t-112 -28.5q-96 0 -151 57t-55 159v285h42v-283q0 -86 43.5 -132t123.5 -46q54 0 96.5 24.5t66 67t23.5 94.5v275h42zM165 642h259v-35h-259v35z" />
    <glyph glyph-name="Ubreve" unicode="&#x16c;" horiz-adv-x="732" 
d="M224 24q-62 35 -96.5 98.5t-34.5 145.5v432h44v-432q0 -70 29 -123.5t81 -83.5t119 -30t119 30t81 83.5t29 123.5v432h44v-432q0 -82 -34.5 -145.5t-96.5 -98.5t-142 -35t-142 35zM279 813q-34 32 -34 82h36q0 -35 23.5 -56.5t61.5 -21.5t61 21.5t23 56.5h37
q0 -49 -34 -81.5t-87 -32.5t-87 32z" />
    <glyph glyph-name="ubreve" unicode="&#x16d;" 
d="M513 494v-494h-40v99q-29 -49 -79 -77.5t-112 -28.5q-96 0 -151 57t-55 159v285h42v-283q0 -86 43.5 -132t123.5 -46q54 0 96.5 24.5t66 67t23.5 94.5v275h42zM208 623q-34 30 -34 77h35q0 -32 24 -52.5t62 -20.5t61.5 20.5t23.5 52.5h36q0 -46 -34 -76.5t-87 -30.5
t-87 30z" />
    <glyph glyph-name="Uring" unicode="&#x16e;" horiz-adv-x="732" 
d="M224 24q-62 35 -96.5 98.5t-34.5 145.5v432h44v-432q0 -70 29 -123.5t81 -83.5t119 -30t119 30t81 83.5t29 123.5v432h44v-432q0 -82 -34.5 -145.5t-96.5 -98.5t-142 -35t-142 35zM292.5 772q-28.5 27 -28.5 70t28.5 70t73.5 27t73.5 -27t28.5 -70t-28.5 -70t-73.5 -27
t-73.5 27zM414.5 795.5q18.5 17.5 18.5 46.5t-18.5 46.5t-48.5 17.5t-48.5 -17.5t-18.5 -46.5t18.5 -46.5t48.5 -17.5t48.5 17.5z" />
    <glyph glyph-name="uring" unicode="&#x16f;" 
d="M513 494v-494h-40v99q-29 -49 -79 -77.5t-112 -28.5q-96 0 -151 57t-55 159v285h42v-283q0 -86 43.5 -132t123.5 -46q54 0 96.5 24.5t66 67t23.5 94.5v275h42zM221.5 566q-28.5 27 -28.5 70t28.5 70t73.5 27t73.5 -27t28.5 -70t-28.5 -70t-73.5 -27t-73.5 27z
M343.5 589.5q18.5 17.5 18.5 46.5t-18.5 46.5t-48.5 17.5t-48.5 -17.5t-18.5 -46.5t18.5 -46.5t48.5 -17.5t48.5 17.5z" />
    <glyph glyph-name="Uhungarumlaut" unicode="&#x170;" horiz-adv-x="732" 
d="M224 24q-62 35 -96.5 98.5t-34.5 145.5v432h44v-432q0 -70 29 -123.5t81 -83.5t119 -30t119 30t81 83.5t29 123.5v432h44v-432q0 -82 -34.5 -145.5t-96.5 -98.5t-142 -35t-142 35zM343 906h49l-78 -121h-41zM473 906h50l-79 -121h-41z" />
    <glyph glyph-name="uhungarumlaut" unicode="&#x171;" 
d="M513 494v-494h-40v99q-29 -49 -79 -77.5t-112 -28.5q-96 0 -151 57t-55 159v285h42v-283q0 -86 43.5 -132t123.5 -46q54 0 96.5 24.5t66 67t23.5 94.5v275h42zM270 700h50l-77 -121h-40zM401 700h49l-78 -121h-40z" />
    <glyph glyph-name="Uogonek" unicode="&#x172;" horiz-adv-x="732" 
d="M639 700v-432q0 -100 -51 -171.5t-137 -96.5q-50 -21 -73.5 -44t-23.5 -50q0 -25 16 -38.5t45 -13.5q50 0 87 33l21 -29q-49 -43 -112 -43q-45 0 -71.5 23.5t-26.5 63.5q0 49 48 87q-79 1 -139.5 36.5t-94.5 98.5t-34 144v432h44v-432q0 -70 29 -123.5t81 -83.5t119 -30
t119 30t81 83.5t29 123.5v432h44z" />
    <glyph glyph-name="uogonek" unicode="&#x173;" 
d="M583 -141q-49 -43 -113 -43q-44 0 -70 22.5t-26 61.5q0 71 99 118v81q-29 -49 -79 -77.5t-112 -28.5q-96 0 -151 57t-55 159v285h42v-283q0 -86 43.5 -132t123.5 -46q54 0 96.5 24.5t66 67t23.5 94.5v275h42v-494q-52 -20 -76 -43.5t-24 -52.5q0 -24 16 -37.5t46 -13.5
q47 0 86 34z" />
    <glyph glyph-name="Wcircumflex" unicode="&#x174;" horiz-adv-x="1084" 
d="M998 700h47l-244 -700h-51l-110 337l-99 302l-100 -302l-112 -337h-51l-240 700h47l218 -646l213 646h50l210 -646l91 264zM676 780h-48l-87 84l-88 -84h-48l117 117h37z" />
    <glyph glyph-name="wcircumflex" unicode="&#x175;" horiz-adv-x="816" 
d="M730 494h45l-171 -494h-45l-49 141l-102 287l-102 -287l-49 -141h-45l-172 494h45l70 -205l80 -233l155 438h37l154 -440l80 235zM552 579h-48l-96 88l-97 -88h-48l126 121h37z" />
    <glyph glyph-name="Ycircumflex" unicode="&#x176;" horiz-adv-x="656" 
d="M625 700l-276 -421v-279h-44v279l-275 421h52l245 -378l245 378h53zM462 780h-48l-87 84l-88 -84h-48l117 117h37z" />
    <glyph glyph-name="ycircumflex" unicode="&#x177;" horiz-adv-x="545" 
d="M460 494h46l-320 -734h-46l106 243l-207 491h46l119 -286l65 -155zM416 579h-48l-96 88l-97 -88h-48l126 121h37z" />
    <glyph glyph-name="Ydieresis" unicode="&#x178;" horiz-adv-x="656" 
d="M625 700l-276 -421v-279h-44v279l-275 421h52l245 -378l245 378h53zM205.5 824q-10.5 11 -10.5 27t10.5 27t26.5 11t27 -10.5t11 -27.5q0 -16 -11 -27t-27 -11t-26.5 11zM396 824q-11 11 -11 27t11 27t27 11t27 -10.5t11 -27.5q0 -16 -11 -27t-27 -11t-27 11z" />
    <glyph glyph-name="Zacute" unicode="&#x179;" horiz-adv-x="585" 
d="M550 700v-24l-464 -633h464v-43h-530v25l464 633h-428v42h494zM350 897h50l-86 -117h-41z" />
    <glyph glyph-name="zacute" unicode="&#x17a;" horiz-adv-x="472" 
d="M435 494v-22l-341 -432h340v-40h-404v22l339 432h-324v40h390zM281 700h50l-85 -121h-41z" />
    <glyph glyph-name="Zdotaccent" unicode="&#x17b;" horiz-adv-x="585" 
d="M550 700v-24l-464 -633h464v-43h-530v25l464 633h-428v42h494zM270.5 826.5q-10.5 10.5 -10.5 26.5t10.5 27t27.5 11q16 0 26.5 -11t10.5 -27t-10.5 -26.5t-26.5 -10.5q-17 0 -27.5 10.5z" />
    <glyph glyph-name="zdotaccent" unicode="&#x17c;" horiz-adv-x="472" 
d="M435 494v-22l-341 -432h340v-40h-404v22l339 432h-324v40h390zM213.5 621q-10.5 10 -10.5 26t11 26.5t27 10.5t26.5 -10.5t10.5 -26.5t-10.5 -26t-26.5 -10q-17 0 -27.5 10z" />
    <glyph glyph-name="Zcaron" unicode="&#x17d;" horiz-adv-x="585" 
d="M550 700v-24l-464 -633h464v-43h-530v25l464 633h-428v42h494zM385 898h48l-117 -117h-37l-117 117h48l88 -84z" />
    <glyph glyph-name="zcaron" unicode="&#x17e;" horiz-adv-x="472" 
d="M435 494v-22l-341 -432h340v-40h-404v22l339 432h-324v40h390zM337 700h48l-126 -121h-37l-126 121h48l97 -89z" />
    <glyph glyph-name="longs" unicode="&#x17f;" horiz-adv-x="280" 
d="M376 678l-22 -30q-32 25 -76 25q-50 0 -75.5 -29t-25.5 -96v-548h-42v455h-101v39h101v54q0 164 142 164q56 0 99 -34z" />
    <glyph glyph-name="florin" unicode="&#x192;" horiz-adv-x="382" 
d="M230.5 643.5q-24.5 -29.5 -24.5 -93.5v-56h165v-39h-165v-455q0 -163 -120 -163q-54 0 -98 32l20 31q34 -24 75 -24q43 0 62 29.5t19 94.5v455h-101v39h101v56q0 162 142 162q58 0 99 -34l-22 -30q-32 25 -77 25q-51 0 -75.5 -29.5z" />
    <glyph glyph-name="AEacute" unicode="&#x1fc;" horiz-adv-x="1008" 
d="M536 42h413v-42h-455v217h-310l-155 -217h-52l494 700h462v-42h-397v-283h375v-42h-375v-291zM212 260h282v399l-75 -107zM565 897h50l-86 -117h-41z" />
    <glyph glyph-name="aeacute" unicode="&#x1fd;" horiz-adv-x="1045" 
d="M887 472.5q55 -30.5 85.5 -85.5t30.5 -126q0 -20 -1 -30h-451q6 -92 62 -146t145 -54q54 0 104 22t78 57l30 -24q-34 -44 -90 -69t-121 -25q-69 0 -124 30.5t-87 86.5v-109h-40v110q-27 -55 -83.5 -86.5t-127.5 -31.5q-72 0 -128 32.5t-87.5 90.5t-31.5 132t31.5 132
t87.5 90.5t128 32.5q70 0 126 -31t85 -85v108h40v-109q32 56 87 87t124 31q73 0 128 -30.5zM615 410.5q-56 -53.5 -64 -140.5h412q0 57 -26.5 101t-73 68.5t-107.5 24.5q-85 0 -141 -53.5zM407 58q47 27 73 76t26 113t-26 113t-73 76t-108 27t-108 -27t-73 -76t-26 -113
q0 -63 26 -112.5t73 -76.5t108 -27t108 27zM568 700h50l-85 -121h-41z" />
    <glyph glyph-name="Oslashacute" unicode="&#x1fe;" horiz-adv-x="816" 
d="M722 525q39 -78 39 -175q0 -105 -45 -187.5t-125.5 -128.5t-182.5 -46q-94 0 -170 39l-62 -101h-48l74 122q-69 48 -108 126t-39 176q0 105 45 187.5t125.5 128.5t182.5 46q94 0 171 -40l61 101h48l-74 -122q69 -48 108 -126zM132.5 196.5q33.5 -68.5 92.5 -110.5
l331 549q-65 35 -148 35q-89 0 -159.5 -40.5t-110 -113.5t-39.5 -166q0 -85 33.5 -153.5zM567.5 70.5q70.5 40.5 110 113.5t39.5 166q0 85 -33 153t-92 111l-332 -550q66 -34 148 -34q89 0 159.5 40.5zM460 897h50l-86 -117h-41z" />
    <glyph glyph-name="oslashacute" unicode="&#x1ff;" horiz-adv-x="603" 
d="M526 369q27 -54 27 -122q0 -77 -34 -135t-91.5 -89.5t-126.5 -31.5q-60 0 -113 25l-40 -67h-45l51 86q-49 34 -76.5 88.5t-27.5 123.5q0 77 34 135t91 89.5t126 31.5q64 0 118 -27l38 64h45l-50 -83q47 -34 74 -88zM114 145.5q22 -45.5 61 -74.5l223 370q-46 22 -97 22
q-57 0 -104.5 -27t-76 -76t-28.5 -113q0 -56 22 -101.5zM406 58q48 27 76.5 76t28.5 113q0 55 -21.5 100t-58.5 74l-223 -370q43 -20 93 -20q57 0 105 27zM342 700h50l-85 -121h-41z" />
    <glyph glyph-name="uni0218" unicode="&#x218;" horiz-adv-x="655" 
d="M170 24.5q-77 35.5 -120 94.5l30 30q34 -52 105 -85t148 -33q106 0 167.5 39.5t61.5 107.5q0 43 -21.5 71t-72 48t-144.5 38q-96 19 -151.5 44t-80.5 61t-25 90t32.5 95.5t92 64t137.5 22.5q76 0 140 -25.5t108 -74.5l-28 -31q-38 43 -95.5 66.5t-125.5 23.5
q-99 0 -158.5 -38.5t-59.5 -102.5q0 -42 21 -69.5t69 -47t133 -36.5q105 -21 163.5 -46t84 -61t25.5 -91q0 -88 -73.5 -139t-199.5 -51q-86 0 -163 35.5zM362.5 -87.5q9.5 -8.5 9.5 -22.5q0 -10 -6.5 -28t-33.5 -76h-33l28 77q-20 6 -20 27q0 14 10 22.5t23 8.5t22.5 -8.5z
" />
    <glyph glyph-name="uni0219" unicode="&#x219;" horiz-adv-x="502" 
d="M131 16q-58 25 -90 64l26 28q31 -35 81 -56t108 -21q73 0 117 27.5t44 73.5q0 28 -15 46t-50.5 31t-102.5 26q-73 14 -114 30.5t-59 41t-18 62.5q0 62 54 98t146 36q59 0 104.5 -16t85.5 -49l-24 -30q-36 29 -74.5 42.5t-90.5 13.5q-76 0 -117.5 -25t-41.5 -70
q0 -27 14 -43.5t46.5 -28.5t94.5 -24q77 -14 120.5 -31.5t63 -44t19.5 -66.5q0 -63 -55.5 -101.5t-146.5 -38.5q-67 0 -125 25zM277.5 -87.5q9.5 -8.5 9.5 -22.5q0 -10 -6.5 -28t-33.5 -76h-33l28 77q-20 6 -20 27q0 14 10 22.5t23 8.5t22.5 -8.5z" />
    <glyph glyph-name="uni021A" unicode="&#x21a;" horiz-adv-x="589" 
d="M574 700v-43h-258v-657h-43v657h-258v43h559zM320.5 -87.5q9.5 -8.5 9.5 -22.5q0 -10 -6.5 -28t-33.5 -76h-33l28 77q-20 6 -20 27q0 14 10 22.5t23 8.5t22.5 -8.5z" />
    <glyph glyph-name="uni021B" unicode="&#x21b;" horiz-adv-x="397" 
d="M378 18q-54 -27 -101 -27q-75 0 -105 39t-30 118v307h-106v39h106v146l42 4v-150h171v-39h-171v-307q0 -59 19 -89t74 -30q17 0 41 7t44 17zM280.5 -87.5q9.5 -8.5 9.5 -22.5q0 -10 -6.5 -28t-33.5 -76h-33l28 77q-20 6 -20 27q0 14 10 22.5t23 8.5t22.5 -8.5z" />
    <glyph glyph-name="uni0237" unicode="&#x237;" horiz-adv-x="207" 
d="M-95 -227l15 35q34 -21 75 -21q47 0 67.5 29t20.5 98v580h42v-580q0 -87 -31 -127t-99 -40q-42 0 -90 26z" />
    <glyph glyph-name="circumflex" unicode="&#x2c6;" horiz-adv-x="420" 
d="M342 579h-48l-96 88l-97 -88h-48l126 121h37z" />
    <glyph glyph-name="caron" unicode="&#x2c7;" horiz-adv-x="404" 
d="M293 700h48l-126 -121h-37l-126 121h48l97 -89z" />
    <glyph glyph-name="breve" unicode="&#x2d8;" horiz-adv-x="325" 
d="M71 623q-34 30 -34 77h35q0 -32 24 -52.5t62 -20.5t61.5 20.5t23.5 52.5h36q0 -46 -34 -76.5t-87 -30.5t-87 30z" />
    <glyph glyph-name="dotaccent" unicode="&#x2d9;" horiz-adv-x="208" 
d="M70.5 621q-10.5 10 -10.5 26t11 26.5t27 10.5t26.5 -10.5t10.5 -26.5t-10.5 -26t-26.5 -10q-17 0 -27.5 10z" />
    <glyph glyph-name="ring" unicode="&#x2da;" horiz-adv-x="290" 
d="M65.5 566q-28.5 27 -28.5 70t28.5 70t73.5 27t73.5 -27t28.5 -70t-28.5 -70t-73.5 -27t-73.5 27zM187.5 589.5q18.5 17.5 18.5 46.5t-18.5 46.5t-48.5 17.5t-48.5 -17.5t-18.5 -46.5t18.5 -46.5t48.5 -17.5t48.5 17.5z" />
    <glyph glyph-name="ogonek" unicode="&#x2db;" horiz-adv-x="413" 
d="M187 -161.5q-26 22.5 -26 61.5q0 79 123 129l16 -29q-52 -20 -76 -43.5t-24 -52.5q0 -24 16 -37.5t46 -13.5q47 0 86 34l22 -28q-49 -43 -113 -43q-44 0 -70 22.5z" />
    <glyph glyph-name="tilde" unicode="&#x2dc;" horiz-adv-x="316" 
d="M187 619q-14 5 -37 18q-25 14 -35 18t-21 4q-25 0 -37 -35l-28 12q8 29 24.5 44t40.5 15q14 0 27 -5t42 -21q21 -11 31 -15t20 -4q25 0 37 36l29 -11q-7 -30 -24 -45.5t-41 -15.5q-14 0 -28 5z" />
    <glyph glyph-name="hungarumlaut" unicode="&#x2dd;" horiz-adv-x="342" 
d="M135 700h50l-77 -121h-40zM266 700h49l-78 -121h-40z" />
    <glyph glyph-name="gravecomb" unicode="&#x300;" horiz-adv-x="0" 
d="M-80 579l-85 121h50l76 -121h-41z" />
    <glyph glyph-name="acutecomb" unicode="&#x301;" horiz-adv-x="0" 
d="M-73 700h50l-85 -121h-41z" />
    <glyph glyph-name="uni0302" unicode="&#x302;" horiz-adv-x="0" 
d="M-64 579h-48l-96 88l-97 -88h-48l126 121h37z" />
    <glyph glyph-name="tildecomb" unicode="&#x303;" horiz-adv-x="0" 
d="M-142 619q-14 5 -37 18q-25 14 -35 18t-21 4q-25 0 -37 -35l-28 12q8 29 24.5 44t40.5 15q14 0 27 -5t42 -21q21 -11 31 -15t20 -4q25 0 37 36l29 -11q-7 -30 -24 -45.5t-41 -15.5q-14 0 -28 5z" />
    <glyph glyph-name="uni0304" unicode="&#x304;" horiz-adv-x="0" 
d="M-329 642h259v-35h-259v35z" />
    <glyph glyph-name="uni0306" unicode="&#x306;" horiz-adv-x="0" 
d="M-258 623q-34 30 -34 77h35q0 -32 24 -52.5t62 -20.5t61.5 20.5t23.5 52.5h36q0 -46 -34 -76.5t-87 -30.5t-87 30z" />
    <glyph glyph-name="uni0307" unicode="&#x307;" horiz-adv-x="0" 
d="M-113.5 621q-10.5 10 -10.5 26t11 26.5t27 10.5t26.5 -10.5t10.5 -26.5t-10.5 -26t-26.5 -10q-17 0 -27.5 10z" />
    <glyph glyph-name="uni0308" unicode="&#x308;" horiz-adv-x="0" 
d="M-295.5 621.5q-10.5 10.5 -10.5 26.5t10.5 26t26.5 10t26.5 -10t10.5 -26t-10.5 -26.5t-26.5 -10.5t-26.5 10.5zM-107.5 621.5q-10.5 10.5 -10.5 26.5t10.5 26t26.5 10t26 -10t10 -26t-10 -26.5t-26 -10.5t-26.5 10.5z" />
    <glyph glyph-name="uni030A" unicode="&#x30a;" horiz-adv-x="0" 
d="M-222.5 566q-28.5 27 -28.5 70t28.5 70t73.5 27t73.5 -27t28.5 -70t-28.5 -70t-73.5 -27t-73.5 27zM-100.5 589.5q18.5 17.5 18.5 46.5t-18.5 46.5t-48.5 17.5t-48.5 -17.5t-18.5 -46.5t18.5 -46.5t48.5 -17.5t48.5 17.5z" />
    <glyph glyph-name="uni030B" unicode="&#x30b;" horiz-adv-x="0" 
d="M-198 700h50l-77 -121h-40zM-67 700h49l-78 -121h-40z" />
    <glyph glyph-name="uni030C" unicode="&#x30c;" horiz-adv-x="0" 
d="M-113 700h48l-126 -121h-37l-126 121h48l97 -89z" />
    <glyph glyph-name="uni0312" unicode="&#x312;" horiz-adv-x="0" 
d="M-69 623q7 -9 7 -21q0 -14 -10 -24t-24 -10q-15 0 -24.5 10t-9.5 25t8.5 44t31.5 92h34l-31 -105q11 -2 18 -11z" />
    <glyph glyph-name="uni0326" unicode="&#x326;" horiz-adv-x="0" 
d="M-105.5 -87.5q9.5 -8.5 9.5 -22.5q0 -10 -6.5 -28t-33.5 -76h-33l28 77q-20 6 -20 27q0 14 10 22.5t23 8.5t22.5 -8.5z" />
    <glyph glyph-name="uni0327" unicode="&#x327;" horiz-adv-x="0" 
d="M-77 -68.5q26 -21.5 26 -57.5t-29 -59.5t-74 -23.5q-59 0 -99 36l19 25q36 -27 79 -27q29 0 48.5 14t19.5 36q0 23 -18.5 35.5t-51.5 12.5q-15 0 -27 -3l-13 10l26 88l35 -2l-20 -63h9q44 0 70 -21.5z" />
    <glyph glyph-name="uni0328" unicode="&#x328;" horiz-adv-x="0" 
d="M-165 -161.5q-26 22.5 -26 61.5q0 79 123 129l16 -29q-52 -20 -76 -43.5t-24 -52.5q0 -24 16 -37.5t46 -13.5q47 0 86 34l22 -28q-49 -43 -113 -43q-44 0 -70 22.5z" />
    <glyph glyph-name="uni03BC" unicode="&#x3bc;" horiz-adv-x="602" 
d="M520 494v-494h-41l-1 96q-28 -48 -79 -75.5t-109 -27.5q-51 0 -95 18.5t-71 60.5v-312h-41v734h42v-285q0 -91 47.5 -133.5t119.5 -42.5q49 0 91.5 22.5t68.5 65t26 98.5v275h42z" />
    <glyph glyph-name="pi" unicode="&#x3c0;" horiz-adv-x="659" 
d="M503 455v-331q0 -52 16 -71.5t57 -19.5q21 0 34 4l6 -37q-24 -6 -46 -6q-55 0 -82 32.5t-27 97.5v331h-280v-455h-42v455h-123v39h615v-39h-128z" />
    <glyph glyph-name="uni0400" unicode="&#x400;" horiz-adv-x="653" 
d="M145 42h449v-42h-493v700h480v-42h-436v-283h415v-42h-415v-291zM335 780l-87 117h50l77 -117h-40z" />
    <glyph glyph-name="uni0401" unicode="&#x401;" horiz-adv-x="653" 
d="M145 42h449v-42h-493v700h480v-42h-436v-283h415v-42h-415v-291zM228.5 824q-10.5 11 -10.5 27t10.5 27t26.5 11t27 -10.5t11 -27.5q0 -16 -11 -27t-27 -11t-26.5 11zM419 824q-11 11 -11 27t11 27t27 11t27 -10.5t11 -27.5q0 -16 -11 -27t-27 -11t-27 11z" />
    <glyph glyph-name="uni0402" unicode="&#x402;" horiz-adv-x="796" 
d="M685.5 404.5q58.5 -59.5 58.5 -167.5q0 -109 -59.5 -171t-175.5 -75l-8 41q101 12 150 62t49 143q0 90 -47 137.5t-136 47.5q-82 0 -137 -45.5t-63 -119.5v-257h-44v658h-258v42h550v-42h-248v-294q33 48 86 74t118 26q106 0 164.5 -59.5z" />
    <glyph glyph-name="uni0403" unicode="&#x403;" horiz-adv-x="558" 
d="M523 700v-43h-378v-657h-44v700h422zM366 897h50l-86 -117h-41z" />
    <glyph glyph-name="uni0404" unicode="&#x404;" horiz-adv-x="716" 
d="M666 92q-51 -52 -116 -78t-136 -26q-104 0 -186 46t-127.5 128.5t-45.5 187.5t45.5 187.5t127 128.5t185.5 46q73 0 138 -27t114 -78l-30 -29q-44 45 -101 68.5t-120 23.5q-87 0 -156.5 -37t-110.5 -103.5t-47 -152.5h384v-43h-385q3 -89 44 -158t111.5 -107.5
t159.5 -38.5q62 0 119.5 23t103.5 68z" />
    <glyph glyph-name="uni0405" unicode="&#x405;" horiz-adv-x="655" 
d="M170 24.5q-77 35.5 -120 94.5l30 30q34 -52 105 -85t148 -33q106 0 167.5 39.5t61.5 107.5q0 43 -21.5 71t-72 48t-144.5 38q-96 19 -151.5 44t-80.5 61t-25 90t32.5 95.5t92 64t137.5 22.5q76 0 140 -25.5t108 -74.5l-28 -31q-38 43 -95.5 66.5t-125.5 23.5
q-99 0 -158.5 -38.5t-59.5 -102.5q0 -42 21 -69.5t69 -47t133 -36.5q105 -21 163.5 -46t84 -61t25.5 -91q0 -88 -73.5 -139t-199.5 -51q-86 0 -163 35.5z" />
    <glyph glyph-name="uni0406" unicode="&#x406;" horiz-adv-x="246" 
d="M101 700h44v-700h-44v700z" />
    <glyph glyph-name="uni0407" unicode="&#x407;" horiz-adv-x="246" 
d="M101 700h44v-700h-44v700zM1.5 824q-10.5 11 -10.5 27t10.5 27t26.5 11t27 -10.5t11 -27.5q0 -16 -11 -27t-27 -11t-26.5 11zM192 824q-11 11 -11 27t11 27t27 11t27 -10.5t11 -27.5q0 -16 -11 -27t-27 -11t-27 11z" />
    <glyph glyph-name="uni0408" unicode="&#x408;" horiz-adv-x="663" 
d="M570 700v-440q0 -80 -34 -141.5t-95.5 -95t-140.5 -33.5q-78 0 -139.5 34.5t-95.5 96t-34 140.5h42q0 -67 29 -119t80.5 -81t117.5 -29q67 0 118 28.5t79.5 80.5t28.5 120v396h-275v43h319z" />
    <glyph glyph-name="uni0409" unicode="&#x409;" horiz-adv-x="1189" 
d="M1062 387.5q64 -55.5 64 -158.5q0 -113 -64 -171t-180 -58h-279v657h-354l-19 -344q-6 -93 -25.5 -152t-56.5 -97.5t-100 -67.5l-16 40q53 24 84.5 57.5t48.5 88t22 140.5l22 378h437v-257h236q116 0 180 -55.5zM1031 89q52 46 52 140q0 84 -52.5 128t-146.5 44h-238
v-358h238q95 0 147 46z" />
    <glyph glyph-name="uni040A" unicode="&#x40a;" horiz-adv-x="1139" 
d="M1013 371.5q64 -50.5 64 -159.5q0 -105 -65 -158.5t-178 -53.5h-259v376h-430v-376h-44v700h44v-281h430v281h44v-278h215q115 0 179 -50.5zM979.5 86q53.5 43 53.5 126q0 91 -51.5 129.5t-146.5 38.5h-216v-337h216q91 0 144.5 43z" />
    <glyph glyph-name="uni040B" unicode="&#x40b;" horiz-adv-x="805" 
d="M671.5 407q57.5 -57 57.5 -159v-248h-43v245q0 87 -45.5 132.5t-134.5 45.5q-55 0 -98.5 -24.5t-67.5 -67t-24 -94.5v-237h-43v658h-258v42h550v-42h-249v-294q31 47 81 73.5t112 26.5q105 0 162.5 -57z" />
    <glyph glyph-name="uni040C" unicode="&#x40c;" horiz-adv-x="584" 
d="M584 0h-62l-377 350v-350h-44v700h44v-322l348 322h61l-362 -335zM345 897h50l-86 -117h-41z" />
    <glyph glyph-name="uni040D" unicode="&#x40d;" horiz-adv-x="753" 
d="M605 700h47v-700h-43v635l-462 -635h-46v700h44v-631zM365 780l-87 117h50l77 -117h-40z" />
    <glyph glyph-name="uni040E" unicode="&#x40e;" horiz-adv-x="667" 
d="M652 700l-289 -575q-37 -73 -73 -102.5t-89 -29.5q-42 0 -78 17l16 39q30 -14 62 -14q37 0 63 21.5t54 74.5l22 44l-307 525h52l278 -480l240 480h49zM218 888l34 10q9 -46 35 -68.5t72 -22.5t72 22.5t35 68.5l34 -10q-26 -117 -141 -117t-141 117z" />
    <glyph glyph-name="uni040F" unicode="&#x40f;" horiz-adv-x="753" 
d="M652 700v-700h-254v-159h-44v159h-253v700h44v-657h463v657h44z" />
    <glyph glyph-name="uni0410" unicode="&#x410;" horiz-adv-x="736" 
d="M660 0l-79 176h-426l-79 -176h-48l314 700h52l314 -700h-48zM368 653l-195 -434h390z" />
    <glyph glyph-name="uni0411" unicode="&#x411;" horiz-adv-x="697" 
d="M579 357q60 -54 60 -151t-60 -151.5t-167 -54.5h-311v700h485v-43h-441v-246h267q107 0 167 -54zM547.5 85.5q47.5 42.5 47.5 120.5q0 77 -47.5 120t-133.5 43h-269v-326h269q86 0 133.5 42.5z" />
    <glyph glyph-name="uni0412" unicode="&#x412;" horiz-adv-x="695" 
d="M604 293q35 -45 35 -106q0 -87 -62 -137t-171 -50h-305v700h305q94 0 151 -49.5t57 -131.5q0 -56 -29 -100t-78 -61q62 -20 97 -65zM526.5 620q-44.5 38 -120.5 38h-261v-280h261q78 0 121.5 37t43.5 102t-44.5 103zM545.5 81q49.5 39 49.5 108q0 68 -50.5 107.5
t-136.5 39.5h-263v-294h263q88 0 137.5 39z" />
    <glyph glyph-name="uni0413" unicode="&#x413;" horiz-adv-x="558" 
d="M523 700v-43h-378v-657h-44v700h422z" />
    <glyph glyph-name="uni0414" unicode="&#x414;" horiz-adv-x="796" 
d="M761 43v-202h-43v159h-657v-159h-43v202h61q55 47 78.5 101t29.5 150l25 406h447v-657h102zM205 145.5q-20 -53.5 -66 -103.5h477v615h-364l-22 -367q-5 -91 -25 -144.5z" />
    <glyph glyph-name="uni0415" unicode="&#x415;" horiz-adv-x="653" 
d="M145 42h449v-42h-493v700h480v-42h-436v-283h415v-42h-415v-291z" />
    <glyph glyph-name="uni0416" unicode="&#x416;" horiz-adv-x="882" 
d="M882 0h-60l-359 349v-349h-43v349l-361 -349h-59l375 364l-346 336h60l331 -321v321h43v-321l330 321h59l-345 -336z" />
    <glyph glyph-name="uni0417" unicode="&#x417;" horiz-adv-x="622" 
d="M530 295q35 -46 35 -111q0 -92 -69.5 -144t-191.5 -52q-77 0 -141.5 24.5t-120.5 76.5l27 32q97 -90 234 -90q104 0 161.5 40.5t57.5 114.5q0 70 -51 111t-140 41h-147v42h146q78 0 123 37.5t45 104.5t-53 107.5t-142 40.5q-67 0 -118.5 -21t-98.5 -68l-29 30
q54 53 113.5 77t137.5 24q69 0 122 -23.5t82 -66t29 -98.5q0 -59 -30 -103t-80 -61q64 -19 99 -65z" />
    <glyph glyph-name="uni0418" unicode="&#x418;" horiz-adv-x="753" 
d="M605 700h47v-700h-43v635l-462 -635h-46v700h44v-631z" />
    <glyph glyph-name="uni0419" unicode="&#x419;" horiz-adv-x="753" 
d="M605 700h47v-700h-43v635l-462 -635h-46v700h44v-631zM240 888l34 10q9 -46 35 -68.5t72 -22.5t72 22.5t35 68.5l34 -10q-26 -117 -141 -117t-141 117z" />
    <glyph glyph-name="uni041A" unicode="&#x41a;" horiz-adv-x="584" 
d="M584 0h-62l-377 350v-350h-44v700h44v-322l348 322h61l-362 -335z" />
    <glyph glyph-name="uni041B" unicode="&#x41b;" horiz-adv-x="773" 
d="M672 700v-700h-44v657h-379l-20 -344q-6 -93 -25 -152t-56 -97.5t-100 -67.5l-16 40q53 24 84.5 57.5t48.5 88t22 140.5l22 378h463z" />
    <glyph glyph-name="uni041C" unicode="&#x41c;" horiz-adv-x="906" 
d="M757 700h48v-700h-43v633l-303 -419h-11l-303 418v-632h-44v700h48l304 -421z" />
    <glyph glyph-name="uni041D" unicode="&#x41d;" horiz-adv-x="753" 
d="M608 700h44v-700h-44v338h-463v-338h-44v700h44v-320h463v320z" />
    <glyph glyph-name="uni041E" unicode="&#x41e;" horiz-adv-x="816" 
d="M225.5 34q-80.5 46 -125.5 128.5t-45 187.5t45 187.5t125.5 128.5t182.5 46t182.5 -46t125.5 -128.5t45 -187.5t-45 -187.5t-125.5 -128.5t-182.5 -46t-182.5 46zM567.5 70.5q70.5 40.5 110 113.5t39.5 166t-39.5 166t-110 113.5t-159.5 40.5t-159.5 -40.5t-110 -113.5
t-39.5 -166t39.5 -166t110 -113.5t159.5 -40.5t159.5 40.5z" />
    <glyph glyph-name="uni041F" unicode="&#x41f;" horiz-adv-x="753" 
d="M101 700h551v-700h-44v657h-463v-657h-44v700z" />
    <glyph glyph-name="uni0420" unicode="&#x420;" horiz-adv-x="668" 
d="M523.5 671q52.5 -29 80 -81t27.5 -119q0 -66 -27.5 -117.5t-80.5 -80.5t-125 -29h-253v-244h-44v700h297q73 0 125.5 -29zM538 337q50 51 50 135t-50 135t-141 51h-252v-372h252q91 0 141 51z" />
    <glyph glyph-name="uni0421" unicode="&#x421;" horiz-adv-x="716" 
d="M228 34q-82 46 -127.5 128.5t-45.5 187.5t45.5 187.5t127 128.5t185.5 46q72 0 136 -27t113 -77l-30 -29q-44 44 -99.5 67.5t-118.5 23.5q-92 0 -164 -40.5t-111.5 -113t-39.5 -166.5t39.5 -166.5t111.5 -113t164 -40.5q63 0 120.5 23.5t102.5 67.5l29 -29
q-49 -51 -114 -77.5t-138 -26.5q-104 0 -186 46z" />
    <glyph glyph-name="uni0422" unicode="&#x422;" horiz-adv-x="589" 
d="M574 700v-43h-258v-657h-43v657h-258v43h559z" />
    <glyph glyph-name="uni0423" unicode="&#x423;" horiz-adv-x="667" 
d="M652 700l-289 -575q-37 -73 -73 -102.5t-89 -29.5q-42 0 -78 17l16 39q30 -14 62 -14q37 0 63 21.5t54 74.5l22 44l-307 525h52l278 -480l240 480h49z" />
    <glyph glyph-name="uni0424" unicode="&#x424;" horiz-adv-x="835" 
d="M631 602.5q76 -39.5 112.5 -105.5t36.5 -147t-36.5 -147.5t-113 -106t-190.5 -39.5h-1v-90h-43v90h-4q-113 0 -189 40t-112 106t-36 147t36.5 147t113 105.5t190.5 39.5h1v91h43v-91h2q114 0 190 -39.5zM129 225q31 -57 97 -91.5t167 -34.5h3v502h-1q-102 0 -168.5 -34.5
t-97.5 -91.5t-31 -125t31 -125zM608.5 133.5q66.5 34.5 97.5 91t31 125.5t-31 125.5t-97.5 91t-167.5 34.5h-2v-502h2q101 0 167.5 34.5z" />
    <glyph glyph-name="uni0425" unicode="&#x425;" horiz-adv-x="599" 
d="M327 360l260 -360h-54l-234 326l-234 -326h-53l258 359l-238 341h53l95 -137l120 -170l119 170l95 137h53z" />
    <glyph glyph-name="uni0426" unicode="&#x426;" horiz-adv-x="785" 
d="M652 43h98v-202h-44v159h-605v700h44v-657h463v657h44v-657z" />
    <glyph glyph-name="uni0427" unicode="&#x427;" horiz-adv-x="695" 
d="M593 700v-700h-43v342q-35 -56 -94 -86t-134 -30q-118 0 -183 69.5t-65 197.5v207h44v-205q0 -111 53 -169t155 -58q66 0 117 26.5t79 75t28 111.5v219h43z" />
    <glyph glyph-name="uni0428" unicode="&#x428;" horiz-adv-x="1124" 
d="M979 700h44v-700h-922v700h44v-657h395v657h44v-657h395v657z" />
    <glyph glyph-name="uni0429" unicode="&#x429;" horiz-adv-x="1155" 
d="M1023 43h97v-202h-43v159h-976v700h44v-657h395v657h44v-657h395v657h44v-657z" />
    <glyph glyph-name="uni042A" unicode="&#x42a;" horiz-adv-x="805" 
d="M678 387q64 -56 64 -158q0 -113 -64 -171t-180 -58h-287v658h-197v42h241v-257h243q116 0 180 -56zM647 89q52 46 52 140q0 84 -52.5 128t-146.5 44h-245v-358h245q95 0 147 46z" />
    <glyph glyph-name="uni042B" unicode="&#x42b;" horiz-adv-x="897" 
d="M568 387q64 -56 64 -158q0 -113 -64 -171t-180 -58h-287v700h44v-257h243q116 0 180 -56zM537 89q52 46 52 140q0 84 -52.5 128t-146.5 44h-245v-358h245q95 0 147 46zM751 700h44v-700h-44v700z" />
    <glyph glyph-name="uni042C" unicode="&#x42c;" horiz-adv-x="695" 
d="M568 387q64 -56 64 -158q0 -113 -64 -171t-180 -58h-287v700h44v-257h243q116 0 180 -56zM537 89q52 46 52 140q0 84 -52.5 128t-146.5 44h-245v-358h245q95 0 147 46z" />
    <glyph glyph-name="uni042D" unicode="&#x42d;" horiz-adv-x="716" 
d="M488.5 666q81.5 -46 127 -128.5t45.5 -187.5t-45.5 -187.5t-127 -128.5t-185.5 -46q-71 0 -136.5 26.5t-116.5 77.5l30 29q45 -44 102.5 -67.5t119.5 -23.5q90 0 160.5 38.5t111.5 107.5t44 158h-385v43h384q-6 86 -47 152.5t-110.5 103.5t-157.5 37q-63 0 -119.5 -23.5
t-100.5 -68.5l-31 29q49 51 114 78t138 27q104 0 185.5 -46z" />
    <glyph glyph-name="uni042E" unicode="&#x42e;" horiz-adv-x="1086" 
d="M862.5 666q79.5 -46 124 -128.5t44.5 -187.5t-44.5 -187.5t-124 -128.5t-178.5 -46q-98 0 -175.5 44.5t-123 124t-48.5 181.5h-192v-338h-44v700h44v-320h193q6 97 52.5 172.5t122.5 117.5t171 42q99 0 178.5 -46zM840 71q69 41 108 113.5t39 165.5t-39 165.5t-108 113.5
t-156 41t-156 -41t-108 -113.5t-39 -165.5t39 -165.5t108 -113.5t156 -41t156 41z" />
    <glyph glyph-name="uni042F" unicode="&#x42f;" horiz-adv-x="707" 
d="M605 700v-700h-44v269h-211l-239 -269h-58l240 269q-65 2 -114.5 29.5t-76 75.5t-26.5 110q0 64 28 113t79.5 76t119.5 27h302zM169.5 358q49.5 -47 133.5 -47h258v347h-258q-84 0 -133.5 -47.5t-49.5 -126.5t49.5 -126z" />
    <glyph glyph-name="uni0430" unicode="&#x430;" horiz-adv-x="632" 
d="M550 494v-494h-40l-1 110q-28 -55 -84.5 -86.5t-127.5 -31.5q-72 0 -128 32.5t-87.5 90.5t-31.5 132t31.5 132t87.5 90.5t128 32.5q71 0 127.5 -32t84.5 -87l1 111h40zM407.5 58q47.5 27 74 76t26.5 113t-26.5 113t-74 76t-107.5 27q-61 0 -108 -27t-73.5 -76t-26.5 -113
t26.5 -113t73.5 -76t108 -27q60 0 107.5 27z" />
    <glyph glyph-name="uni0431" unicode="&#x431;" horiz-adv-x="612" 
d="M444 453q56 -31 87 -86.5t31 -128.5q0 -72 -32 -128t-90 -87t-133 -31q-76 0 -134 32t-89.5 91t-31.5 137v67q0 115 29.5 188t94 114t170.5 55q75 10 109.5 19t66.5 26l19 -37q-38 -20 -75.5 -30.5t-112.5 -19.5q-90 -11 -144 -40.5t-81.5 -83.5t-34.5 -143
q32 57 88.5 87t132.5 30q74 0 130 -31zM418.5 57q48.5 26 75 73t26.5 108t-26.5 108t-74.5 73t-111 26q-64 0 -112 -26t-74.5 -73t-26.5 -108t26.5 -108t75 -73t111.5 -26q62 0 110.5 26z" />
    <glyph glyph-name="uni0432" unicode="&#x432;" horiz-adv-x="541" 
d="M466.5 207q24.5 -32 24.5 -75q0 -62 -42.5 -97t-117.5 -35h-248v494h248q65 0 104 -34.5t39 -93.5q0 -41 -20.5 -72t-53.5 -42q42 -13 66.5 -45zM402 431.5q-30 24.5 -80 24.5h-198v-185h192q55 0 85.5 24t30.5 69q0 43 -30 67.5zM417 63.5q33 25.5 33 70.5t-36 72
t-97 27h-193v-195h199q61 0 94 25.5z" />
    <glyph glyph-name="uni0433" unicode="&#x433;" horiz-adv-x="450" 
d="M83 494h322v-40h-280v-454h-42v494z" />
    <glyph glyph-name="uni0434" unicode="&#x434;" horiz-adv-x="592" 
d="M566 40v-179h-41v139h-460v-139h-41v179h53q26 27 40.5 66.5t20.5 114.5l20 273h331v-454h77zM161.5 107q-13.5 -39 -34.5 -67h320v414h-250l-17 -238q-5 -70 -18.5 -109z" />
    <glyph glyph-name="uni0435" unicode="&#x435;" horiz-adv-x="587" 
d="M428.5 472.5q56.5 -30.5 87 -85.5t30.5 -127q0 -19 -1 -29h-453q7 -93 63 -147t145 -54q55 0 105 22t77 58l30 -25q-35 -44 -91 -69.5t-121 -25.5q-72 0 -129 33t-89 91.5t-32 132.5t31.5 132t88 91t128.5 33q74 0 130.5 -30.5zM155 410.5q-56 -53.5 -63 -140.5h413
q0 57 -26.5 101t-73 68.5t-107.5 24.5q-87 0 -143 -53.5z" />
    <glyph glyph-name="uni0436" unicode="&#x436;" horiz-adv-x="686" 
d="M678 0h-59l-255 237v-237h-42v237l-255 -237h-59l272 253l-242 241h57l227 -226v226h42v-226l226 226h57l-241 -241z" />
    <glyph glyph-name="uni0437" unicode="&#x437;" horiz-adv-x="468" 
d="M394 206q24 -33 24 -76q0 -67 -51 -104.5t-140 -37.5q-61 0 -111.5 20.5t-85.5 60.5l26 28q67 -70 171 -70q70 0 109.5 27.5t39.5 77.5q0 47 -36 75.5t-97 28.5h-102v39h101q56 0 86.5 24.5t30.5 70.5q0 48 -34 72.5t-100 24.5q-92 0 -156 -70l-26 27q71 82 182 82
q84 0 129.5 -35t45.5 -100q0 -40 -19 -71.5t-53 -44.5q42 -16 66 -49z" />
    <glyph glyph-name="uni0438" unicode="&#x438;" horiz-adv-x="592" 
d="M475 494h34v-494h-42v422l-350 -422h-34v494h42v-284l-1 -137z" />
    <glyph glyph-name="uni0439" unicode="&#x439;" horiz-adv-x="592" 
d="M475 494h34v-494h-42v422l-350 -422h-34v494h42v-284l-1 -137zM211.5 596.5q-31.5 29.5 -43.5 88.5l33 9q8 -45 31.5 -68t64.5 -23q40 0 63.5 23t32.5 68l33 -9q-25 -118 -129 -118q-54 0 -85.5 29.5z" />
    <glyph glyph-name="uni043A" unicode="&#x43a;" horiz-adv-x="461" 
d="M453 0h-60l-268 235v-235h-42v494h42v-226l241 226h57l-257 -241z" />
    <glyph glyph-name="uni043B" unicode="&#x43b;" horiz-adv-x="595" 
d="M513 494v-494h-42v454h-262l-15 -204q-8 -122 -39 -180.5t-98 -77.5l-10 38q51 16 74.5 65.5t31.5 157.5l17 241h343z" />
    <glyph glyph-name="uni043C" unicode="&#x43c;" horiz-adv-x="683" 
d="M551 494h49v-494h-41v436l-206 -297h-23l-206 295v-434h-41v494h48l211 -303z" />
    <glyph glyph-name="uni043D" unicode="&#x43d;" horiz-adv-x="592" 
d="M467 494h42v-494h-42v236h-342v-236h-42v494h42v-218h342v218z" />
    <glyph glyph-name="uni043E" unicode="&#x43e;" horiz-adv-x="605" 
d="M172.5 24q-57.5 33 -90 91.5t-32.5 131.5t32.5 131.5t90 91.5t129.5 33q73 0 130.5 -33t90 -91.5t32.5 -131.5t-32.5 -131.5t-90 -91.5t-130.5 -33q-72 0 -129.5 33zM410 59q48 28 75.5 77.5t27.5 110.5t-27.5 110.5t-75.5 77.5t-108 28t-108 -28t-75 -77.5t-27 -110.5
t27 -110.5t75 -77.5t108 -28t108 28z" />
    <glyph glyph-name="uni043F" unicode="&#x43f;" horiz-adv-x="592" 
d="M83 494h426v-494h-42v454h-342v-454h-42v494z" />
    <glyph glyph-name="uni0440" unicode="&#x440;" horiz-adv-x="632" 
d="M463.5 469.5q56.5 -32.5 88 -90.5t31.5 -132t-31.5 -132t-88 -90.5t-128.5 -32.5q-71 0 -126.5 31t-83.5 85v-348h-42v734h40v-110q27 54 83.5 86t128.5 32t128.5 -32.5zM440.5 58q47.5 27 74 76t26.5 113t-26.5 113t-74 76t-107.5 27q-61 0 -108 -27t-73.5 -76
t-26.5 -113t26.5 -113t73.5 -76t108 -27q60 0 107.5 27z" />
    <glyph glyph-name="uni0441" unicode="&#x441;" horiz-adv-x="529" 
d="M175.5 23.5q-58.5 32.5 -92 91t-33.5 132.5q0 76 33.5 134t91.5 90t131 32q103 0 176 -73l-28 -28q-29 31 -67.5 46t-81.5 15q-59 0 -107.5 -25.5t-77 -74.5t-28.5 -116q0 -65 28.5 -114t77.5 -75.5t108 -26.5q43 0 82.5 15.5t70.5 46.5l28 -30q-37 -35 -84 -53.5
t-97 -18.5q-72 0 -130.5 32.5z" />
    <glyph glyph-name="uni0442" unicode="&#x442;" horiz-adv-x="495" 
d="M450 494v-39h-181v-455h-42v455h-182v39h405z" />
    <glyph glyph-name="uni0443" unicode="&#x443;" horiz-adv-x="545" 
d="M460 494h46l-320 -734h-46l106 243l-207 491h46l119 -286l65 -155z" />
    <glyph glyph-name="uni0444" unicode="&#x444;" horiz-adv-x="706" 
d="M519 467.5q64 -29.5 100.5 -86t36.5 -134.5t-36.5 -134.5t-100.5 -86t-144 -29.5h-1v-237h-42v237h-3q-80 0 -143.5 29.5t-99.5 86t-36 134.5t36.5 134.5t99.5 86t143 29.5h3v203h42v-203h1q80 0 144 -29.5zM122.5 134.5q30.5 -47.5 84 -72.5t122.5 -25h3v420h-3
q-68 0 -122 -25t-84.5 -72.5t-30.5 -112.5t30.5 -112.5zM497.5 61.5q54.5 24.5 85.5 72t31 113.5q0 65 -31 112.5t-85.5 72.5t-122.5 25h-2v-420h2q68 0 122.5 24.5z" />
    <glyph glyph-name="uni0445" unicode="&#x445;" horiz-adv-x="472" 
d="M261 258l194 -258h-52l-167 224l-109 -146l-59 -78h-50l192 258l-177 236h52l150 -202l80 104l73 98h52z" />
    <glyph glyph-name="uni0446" unicode="&#x446;" horiz-adv-x="612" 
d="M509 40h77v-179h-41v139h-462v494h42v-454h342v454h42v-454z" />
    <glyph glyph-name="uni0447" unicode="&#x447;" horiz-adv-x="533" 
d="M451 494v-494h-42v227q-26 -36 -69.5 -56.5t-97.5 -20.5q-86 0 -136 53t-50 144v147h42v-145q0 -76 38 -117.5t109 -41.5q74 0 119 42.5t45 111.5v150h42z" />
    <glyph glyph-name="uni0448" unicode="&#x448;" horiz-adv-x="830" 
d="M705 494h42v-494h-664v494h42v-454h269v454h42v-454h269v454z" />
    <glyph glyph-name="uni0449" unicode="&#x449;" horiz-adv-x="851" 
d="M747 40h77v-179h-41v139h-700v494h42v-454h269v454h42v-454h269v454h42v-454z" />
    <glyph glyph-name="uni044A" unicode="&#x44a;" horiz-adv-x="590" 
d="M508 279q45 -42 45 -119q0 -79 -46.5 -119.5t-120.5 -40.5h-221v454h-142v40h184v-173h179q77 0 122 -42zM476.5 69q35.5 30 35.5 91t-35.5 91t-99.5 30h-170v-242h170q64 0 99.5 30z" />
    <glyph glyph-name="uni044B" unicode="&#x44b;" horiz-adv-x="715" 
d="M426 279q45 -42 45 -119q0 -79 -46.5 -119.5t-120.5 -40.5h-221v494h42v-173h179q77 0 122 -42zM393.5 69q35.5 30 35.5 91t-35.5 91t-99.5 30h-170v-242h170q64 0 99.5 30zM591 494h42v-494h-42v494z" />
    <glyph glyph-name="uni044C" unicode="&#x44c;" horiz-adv-x="508" 
d="M426 279q45 -42 45 -119q0 -79 -46.5 -119.5t-120.5 -40.5h-221v494h42v-173h179q77 0 122 -42zM393.5 69q35.5 30 35.5 91t-35.5 91t-99.5 30h-170v-242h170q64 0 99.5 30z" />
    <glyph glyph-name="uni044D" unicode="&#x44d;" horiz-adv-x="529" 
d="M354 471q58 -32 91.5 -90t33.5 -134q0 -74 -33.5 -132.5t-92 -91t-130.5 -32.5q-51 0 -97.5 18t-83.5 54l28 30q30 -31 70 -46.5t83 -15.5q57 0 105 25t77.5 72t31.5 109h-263v39h262q-9 87 -68.5 137t-143.5 50q-43 0 -81.5 -15t-67.5 -46l-28 28q73 73 176 73
q73 0 131 -32z" />
    <glyph glyph-name="uni044E" unicode="&#x44e;" horiz-adv-x="806" 
d="M634 471.5q56 -31.5 89.5 -89.5t33.5 -135t-33.5 -135t-89.5 -89.5t-124 -31.5t-123.5 30t-89 85.5t-35.5 130.5h-137v-237h-42v494h42v-218h138q6 69 40 120.5t88 79t119 27.5q68 0 124 -31.5zM613 58q47 27 74.5 76t27.5 113t-27.5 113t-74.5 76t-103 27
q-58 0 -105 -26.5t-74 -75.5t-27 -114t27 -114t74 -75.5t105 -26.5q56 0 103 27z" />
    <glyph glyph-name="uni044F" unicode="&#x44f;" horiz-adv-x="514" 
d="M431 494v-494h-42v182h-136l-166 -182h-54l168 183q-72 5 -112.5 46t-40.5 109q0 72 46.5 114t127.5 42h209zM124 251.5q34 -30.5 98 -30.5h168v234h-168q-63 0 -97.5 -30.5t-34.5 -86.5t34 -86.5z" />
    <glyph glyph-name="uni0450" unicode="&#x450;" horiz-adv-x="587" 
d="M428.5 472.5q56.5 -30.5 87 -85.5t30.5 -127q0 -19 -1 -29h-453q7 -93 63 -147t145 -54q55 0 105 22t77 58l30 -25q-35 -44 -91 -69.5t-121 -25.5q-72 0 -129 33t-89 91.5t-32 132.5t31.5 132t88 91t128.5 33q74 0 130.5 -30.5zM155 410.5q-56 -53.5 -63 -140.5h413
q0 57 -26.5 101t-73 68.5t-107.5 24.5q-87 0 -143 -53.5zM293 579l-85 121h50l76 -121h-41z" />
    <glyph glyph-name="uni0451" unicode="&#x451;" horiz-adv-x="587" 
d="M428.5 472.5q56.5 -30.5 87 -85.5t30.5 -127q0 -19 -1 -29h-453q7 -93 63 -147t145 -54q55 0 105 22t77 58l30 -25q-35 -44 -91 -69.5t-121 -25.5q-72 0 -129 33t-89 91.5t-32 132.5t31.5 132t88 91t128.5 33q74 0 130.5 -30.5zM155 410.5q-56 -53.5 -63 -140.5h413
q0 57 -26.5 101t-73 68.5t-107.5 24.5q-87 0 -143 -53.5zM178.5 621.5q-10.5 10.5 -10.5 26.5t10.5 26t26.5 10t26.5 -10t10.5 -26t-10.5 -26.5t-26.5 -10.5t-26.5 10.5zM366.5 621.5q-10.5 10.5 -10.5 26.5t10.5 26t26.5 10t26 -10t10 -26t-10 -26.5t-26 -10.5t-26.5 10.5z
" />
    <glyph glyph-name="uni0452" unicode="&#x452;" horiz-adv-x="602" 
d="M470.5 444q55.5 -57 55.5 -160v-299q0 -89 -29 -130.5t-92 -41.5q-23 0 -42 5t-45 18l14 37q38 -20 71 -20q45 0 63 30.5t18 101.5v298q0 85 -44.5 131.5t-125.5 46.5q-54 0 -97.5 -24.5t-67.5 -67t-24 -94.5v-275h-42v581h-67v36h67v83h42v-83h147v-36h-147v-181
q30 47 80.5 74t111.5 27q98 0 153.5 -57z" />
    <glyph glyph-name="uni0453" unicode="&#x453;" horiz-adv-x="450" 
d="M83 494h322v-40h-280v-454h-42v494zM288 700h50l-85 -121h-41z" />
    <glyph glyph-name="uni0454" unicode="&#x454;" horiz-adv-x="529" 
d="M487 63q-37 -35 -84 -53.5t-97 -18.5q-72 0 -130.5 32.5t-92 91t-33.5 132.5q0 76 33.5 134t91.5 90t131 32q103 0 176 -73l-28 -28q-29 31 -67.5 46t-81.5 15q-84 0 -143.5 -50t-68.5 -137h262v-39h-263q2 -62 31.5 -109t77.5 -72t105 -25q43 0 82.5 15.5t70.5 46.5z
" />
    <glyph glyph-name="uni0455" unicode="&#x455;" horiz-adv-x="502" 
d="M131 16q-58 25 -90 64l26 28q31 -35 81 -56t108 -21q73 0 117 27.5t44 73.5q0 28 -15 46t-50.5 31t-102.5 26q-73 14 -114 30.5t-59 41t-18 62.5q0 62 54 98t146 36q59 0 104.5 -16t85.5 -49l-24 -30q-36 29 -74.5 42.5t-90.5 13.5q-76 0 -117.5 -25t-41.5 -70
q0 -27 14 -43.5t46.5 -28.5t94.5 -24q77 -14 120.5 -31.5t63 -44t19.5 -66.5q0 -63 -55.5 -101.5t-146.5 -38.5q-67 0 -125 25z" />
    <glyph glyph-name="uni0456" unicode="&#x456;" horiz-adv-x="207" 
d="M76.5 621.5q-10.5 10.5 -10.5 26.5t10.5 27t27.5 11q16 0 27 -11t11 -27t-11 -26.5t-27 -10.5q-17 0 -27.5 10.5zM83 494h42v-494h-42v494z" />
    <glyph glyph-name="uni0457" unicode="&#x457;" horiz-adv-x="207" 
d="M83 494h42v-494h-42v494zM1.5 621.5q-10.5 10.5 -10.5 26.5q0 15 10.5 25.5t26.5 10.5t26 -10.5t10 -25.5q0 -16 -10 -26.5t-26 -10.5t-26.5 10.5zM153.5 621.5q-10.5 10.5 -10.5 26.5q0 15 10.5 25.5t26.5 10.5t26 -10.5t10 -25.5q0 -16 -10 -26.5t-26 -10.5t-26.5 10.5
z" />
    <glyph glyph-name="uni0458" unicode="&#x458;" horiz-adv-x="207" 
d="M76.5 621.5q-10.5 10.5 -10.5 26.5t10.5 27t27.5 11q16 0 27 -11t11 -27t-11 -26.5t-27 -10.5q-17 0 -27.5 10.5zM-95 -227l15 35q34 -21 75 -21q47 0 67.5 29t20.5 98v580h42v-580q0 -87 -31 -127t-99 -40q-42 0 -90 26z" />
    <glyph glyph-name="uni0459" unicode="&#x459;" horiz-adv-x="886" 
d="M803.5 277q45.5 -44 45.5 -117q0 -76 -44.5 -118t-122.5 -42h-221v454h-252l-15 -204q-8 -122 -39.5 -180.5t-97.5 -77.5l-10 38q51 16 74.5 65t31.5 158l17 241h333v-173h179q76 0 121.5 -44zM773.5 70q34.5 31 34.5 90q0 58 -35 89.5t-100 31.5h-171v-242h171
q66 0 100.5 31z" />
    <glyph glyph-name="uni045A" unicode="&#x45a;" horiz-adv-x="861" 
d="M779 266.5q45 -40.5 45 -113.5q0 -75 -46.5 -114t-120.5 -39h-209v264h-323v-264h-42v494h42v-190h323v190h42v-187h167q77 0 122 -40.5zM747 68q36 29 36 85t-36 85t-99 29h-159v-228h159q63 0 99 29z" />
    <glyph glyph-name="uni045B" unicode="&#x45b;" horiz-adv-x="602" 
d="M470.5 444q55.5 -57 55.5 -160v-284h-42v283q0 85 -44.5 131.5t-125.5 46.5q-54 0 -97.5 -24.5t-67.5 -67t-24 -94.5v-275h-42v585h-67v36h67v79h42v-79h147v-36h-147v-187q30 48 80.5 75.5t111.5 27.5q98 0 153.5 -57z" />
    <glyph glyph-name="uni045C" unicode="&#x45c;" horiz-adv-x="461" 
d="M453 0h-60l-268 235v-235h-42v494h42v-226l241 226h57l-257 -241zM271 700h50l-85 -121h-41z" />
    <glyph glyph-name="uni045D" unicode="&#x45d;" horiz-adv-x="592" 
d="M475 494h34v-494h-42v422l-350 -422h-34v494h42v-284l-1 -137zM290 579l-85 121h50l76 -121h-41z" />
    <glyph glyph-name="uni045E" unicode="&#x45e;" horiz-adv-x="545" 
d="M460 494h46l-320 -734h-46l106 243l-207 491h46l119 -286l65 -155zM188.5 596.5q-31.5 29.5 -43.5 88.5l33 9q8 -45 31.5 -68t64.5 -23q40 0 63.5 23t32.5 68l33 -9q-25 -118 -129 -118q-54 0 -85.5 29.5z" />
    <glyph glyph-name="uni045F" unicode="&#x45f;" horiz-adv-x="592" 
d="M509 494v-494h-193v-139h-41v139h-192v494h42v-454h342v454h42z" />
    <glyph glyph-name="uni0490" unicode="&#x490;" horiz-adv-x="553" 
d="M476 856h42v-198h-373v-658h-44v700h375v156z" />
    <glyph glyph-name="uni0491" unicode="&#x491;" horiz-adv-x="450" 
d="M364 612h41v-158h-280v-454h-42v494h281v118z" />
    <glyph glyph-name="uni04D4" unicode="&#x4d4;" horiz-adv-x="1008" 
d="M536 42h413v-42h-455v217h-310l-155 -217h-52l494 700h462v-42h-397v-283h375v-42h-375v-291zM212 260h282v399l-75 -107z" />
    <glyph glyph-name="uni04D5" unicode="&#x4d5;" horiz-adv-x="1045" 
d="M887 472.5q55 -30.5 85.5 -85.5t30.5 -126q0 -20 -1 -30h-451q6 -92 62 -146t145 -54q54 0 104 22t78 57l30 -24q-34 -44 -90 -69t-121 -25q-69 0 -124 30.5t-87 86.5v-109h-40v110q-27 -55 -83.5 -86.5t-127.5 -31.5q-72 0 -128 32.5t-87.5 90.5t-31.5 132t31.5 132
t87.5 90.5t128 32.5q70 0 126 -31t85 -85v108h40v-109q32 56 87 87t124 31q73 0 128 -30.5zM615 410.5q-56 -53.5 -64 -140.5h412q0 57 -26.5 101t-73 68.5t-107.5 24.5q-85 0 -141 -53.5zM407 58q47 27 73 76t26 113t-26 113t-73 76t-108 27t-108 -27t-73 -76t-26 -113
q0 -63 26 -112.5t73 -76.5t108 -27t108 27z" />
    <glyph glyph-name="Wgrave" unicode="&#x1e80;" horiz-adv-x="1084" 
d="M998 700h47l-244 -700h-51l-110 337l-99 302l-100 -302l-112 -337h-51l-240 700h47l218 -646l213 646h50l210 -646l91 264zM526 780l-87 117h50l77 -117h-40z" />
    <glyph glyph-name="wgrave" unicode="&#x1e81;" horiz-adv-x="816" 
d="M730 494h45l-171 -494h-45l-49 141l-102 287l-102 -287l-49 -141h-45l-172 494h45l70 -205l80 -233l155 438h37l154 -440l80 235zM403 579l-85 121h50l76 -121h-41z" />
    <glyph glyph-name="Wacute" unicode="&#x1e82;" horiz-adv-x="1084" 
d="M998 700h47l-244 -700h-51l-110 337l-99 302l-100 -302l-112 -337h-51l-240 700h47l218 -646l213 646h50l210 -646l91 264zM594 897h50l-86 -117h-41z" />
    <glyph glyph-name="wacute" unicode="&#x1e83;" horiz-adv-x="816" 
d="M730 494h45l-171 -494h-45l-49 141l-102 287l-102 -287l-49 -141h-45l-172 494h45l70 -205l80 -233l155 438h37l154 -440l80 235zM449 700h50l-85 -121h-41z" />
    <glyph glyph-name="Wdieresis" unicode="&#x1e84;" horiz-adv-x="1084" 
d="M998 700h47l-244 -700h-51l-110 337l-99 302l-100 -302l-112 -337h-51l-240 700h47l218 -646l213 646h50l210 -646l91 264zM419.5 824q-10.5 11 -10.5 27t10.5 27t26.5 11t27 -10.5t11 -27.5q0 -16 -11 -27t-27 -11t-26.5 11zM610 824q-11 11 -11 27t11 27t27 11
t27 -10.5t11 -27.5q0 -16 -11 -27t-27 -11t-27 11z" />
    <glyph glyph-name="wdieresis" unicode="&#x1e85;" horiz-adv-x="816" 
d="M730 494h45l-171 -494h-45l-49 141l-102 287l-102 -287l-49 -141h-45l-172 494h45l70 -205l80 -233l155 438h37l154 -440l80 235zM288.5 621.5q-10.5 10.5 -10.5 26.5t10.5 26t26.5 10t26.5 -10t10.5 -26t-10.5 -26.5t-26.5 -10.5t-26.5 10.5zM476.5 621.5
q-10.5 10.5 -10.5 26.5t10.5 26t26.5 10t26 -10t10 -26t-10 -26.5t-26 -10.5t-26.5 10.5z" />
    <glyph glyph-name="uni1E9E" unicode="&#x1e9e;" horiz-adv-x="705" 
d="M598 385q66 -60 66 -164q0 -110 -69 -169.5t-197 -59.5q-76 0 -142 26l14 40q58 -23 127 -23q110 0 166.5 47.5t56.5 138.5q0 87 -54.5 134.5t-153.5 47.5h-42l-13 29l178 225h-206q-94 0 -139 -45.5t-45 -140.5v-472h-44v473q0 228 227 228h269v-31l-178 -224
q113 0 179 -60z" />
    <glyph glyph-name="Ygrave" unicode="&#x1ef2;" horiz-adv-x="656" 
d="M625 700l-276 -421v-279h-44v279l-275 421h52l245 -378l245 378h53zM312 780l-87 117h50l77 -117h-40z" />
    <glyph glyph-name="ygrave" unicode="&#x1ef3;" horiz-adv-x="545" 
d="M460 494h46l-320 -734h-46l106 243l-207 491h46l119 -286l65 -155zM267 579l-85 121h50l76 -121h-41z" />
    <glyph glyph-name="uni2009" unicode="&#x2009;" horiz-adv-x="198" 
 />
    <glyph glyph-name="uni200B" unicode="&#x200b;" horiz-adv-x="0" 
 />
    <glyph glyph-name="endash" unicode="&#x2013;" horiz-adv-x="594" 
d="M520 308v-40h-446v40h446z" />
    <glyph glyph-name="emdash" unicode="&#x2014;" horiz-adv-x="702" 
d="M628 308v-40h-554v40h554z" />
    <glyph glyph-name="quoteleft" unicode="&#x2018;" horiz-adv-x="202" 
d="M114.5 586.5q6.5 -8.5 6.5 -20.5q0 -15 -9.5 -24.5t-23.5 -9.5t-24 9.5t-10 24.5t8.5 44t31.5 90h33l-30 -103q11 -2 17.5 -10.5z" />
    <glyph glyph-name="quoteright" unicode="&#x2019;" horiz-adv-x="200" 
d="M148.5 697.5q9.5 -9.5 9.5 -24.5q0 -14 -8.5 -43t-31.5 -91h-33l30 104q-11 2 -17.5 10.5t-6.5 20.5q0 14 9.5 23.5t24.5 9.5q14 0 23.5 -9.5z" />
    <glyph glyph-name="quotesinglbase" unicode="&#x201a;" horiz-adv-x="212" 
d="M130.5 51.5q9.5 -9.5 9.5 -24.5t-8.5 -44.5t-31.5 -91.5h-34l31 105q-11 2 -18 11t-7 20q0 15 10 24.5t24 9.5q15 0 24.5 -9.5z" />
    <glyph glyph-name="quotedblleft" unicode="&#x201c;" horiz-adv-x="313" 
d="M127 700l-30 -103q11 -2 17.5 -10.5t6.5 -20.5q0 -15 -9.5 -24.5t-23.5 -9.5t-24 9.5t-10 24.5t8.5 44t31.5 90h33zM225.5 586.5q6.5 -8.5 6.5 -20.5q0 -15 -9.5 -24.5t-23.5 -9.5t-24 9.5t-10 24.5t8.5 44t31.5 90h33l-30 -103q11 -2 17.5 -10.5z" />
    <glyph glyph-name="quotedblright" unicode="&#x201d;" horiz-adv-x="311" 
d="M148.5 697.5q9.5 -9.5 9.5 -24.5q0 -14 -8.5 -43t-31.5 -91h-33l30 104q-11 2 -17.5 10.5t-6.5 20.5q0 14 9.5 23.5t24.5 9.5q14 0 23.5 -9.5zM259.5 697.5q9.5 -9.5 9.5 -24.5q0 -14 -8.5 -43t-31.5 -91h-33l30 104q-11 2 -17.5 10.5t-6.5 20.5q0 14 9.5 23.5t24.5 9.5
q14 0 23.5 -9.5z" />
    <glyph glyph-name="quotedblbase" unicode="&#x201e;" horiz-adv-x="321" 
d="M129.5 50.5q9.5 -9.5 9.5 -24.5q0 -14 -8.5 -43t-31.5 -91h-33l30 104q-11 2 -17.5 10.5t-6.5 20.5q0 14 9.5 23.5t24.5 9.5q14 0 23.5 -9.5zM240.5 50.5q9.5 -9.5 9.5 -24.5q0 -14 -8.5 -43t-31.5 -91h-33l30 104q-11 2 -17.5 10.5t-6.5 20.5q0 14 9.5 23.5t24.5 9.5
q14 0 23.5 -9.5z" />
    <glyph glyph-name="dagger" unicode="&#x2020;" horiz-adv-x="545" 
d="M510 497v-39h-217v-591h-41v591h-217v39h217v203h41v-203h217z" />
    <glyph glyph-name="daggerdbl" unicode="&#x2021;" horiz-adv-x="597" 
d="M537 459h-218v-284h218v-39h-218v-269h-41v269h-218v39h218v284h-218v39h218v202h41v-202h218v-39z" />
    <glyph glyph-name="bullet" unicode="&#x2022;" horiz-adv-x="371" 
d="M121.5 227q-25.5 25 -25.5 64t25.5 64t64.5 25q40 0 65 -25t25 -64t-25 -64t-65 -25q-39 0 -64.5 25z" />
    <glyph glyph-name="ellipsis" unicode="&#x2026;" horiz-adv-x="512" 
d="M82 3.5q-10 9.5 -10 23.5q0 15 10 24.5t24 9.5q15 0 24.5 -9.5t9.5 -24.5q0 -14 -9.5 -23.5t-24.5 -9.5q-14 0 -24 9.5zM233 3.5q-10 9.5 -10 23.5q0 15 10 24.5t24 9.5q15 0 24.5 -9.5t9.5 -24.5q0 -14 -9.5 -23.5t-24.5 -9.5q-14 0 -24 9.5zM382 3.5q-10 9.5 -10 23.5
q0 15 10 24.5t24 9.5q15 0 24.5 -9.5t9.5 -24.5q0 -14 -9.5 -23.5t-24.5 -9.5q-14 0 -24 9.5z" />
    <glyph glyph-name="perthousand" unicode="&#x2030;" horiz-adv-x="1142" 
d="M82 453q-42 41 -42 106t42 106t109 41t109.5 -41t42.5 -106t-42.5 -106t-109.5 -41t-109 41zM585 700h46l-445 -700h-45zM273 479q32 31 32 80t-32 80t-82 31t-81.5 -31t-31.5 -80t31.5 -80t81.5 -31t82 31zM471 36q-42 41 -42 106t42 106t109 41t109 -41t42 -106
t-42 -106t-109 -41t-109 41zM841 36q-42 41 -42 106t42 106t109 41t109.5 -41t42.5 -106t-42.5 -106t-109.5 -41t-109 41zM661.5 62q31.5 31 31.5 80t-31.5 79.5t-81.5 30.5t-81.5 -30.5t-31.5 -79.5t31.5 -80t81.5 -31t81.5 31zM1032 62q32 31 32 80t-31.5 79.5t-82.5 30.5
q-50 0 -81.5 -30.5t-31.5 -79.5t31.5 -80t81.5 -31t82 31z" />
    <glyph glyph-name="minute" unicode="&#x2032;" horiz-adv-x="192" 
d="M89 700h47l-37 -182h-35z" />
    <glyph glyph-name="second" unicode="&#x2033;" horiz-adv-x="318" 
d="M215 700h47l-37 -182h-35zM89 700h47l-37 -182h-35z" />
    <glyph glyph-name="guilsinglleft" unicode="&#x2039;" horiz-adv-x="290" 
d="M235 518l-138 -219l138 -220h-45l-139 220l139 219h45z" />
    <glyph glyph-name="guilsinglright" unicode="&#x203a;" horiz-adv-x="290" 
d="M100 518l139 -219l-139 -220h-45l138 220l-138 219h45z" />
    <glyph glyph-name="uni203D" unicode="&#x203d;" horiz-adv-x="604" 
d="M495.5 658.5q68.5 -52.5 68.5 -148.5q0 -143 -143 -191q-43 -15 -63.5 -28t-29 -33.5t-8.5 -57.5v-44h-42l-1 362h43l-1 -211q15 17 37 28.5t55 22.5q110 39 110 153q0 77 -56.5 118t-163.5 41q-110 0 -167 -41.5t-57 -119.5h-43q0 97 68.5 149.5t198.5 52.5
q126 0 194.5 -52.5zM322.5 51.5q9.5 -9.5 9.5 -24.5q0 -14 -9.5 -23.5t-24.5 -9.5q-14 0 -24 9.5t-10 23.5q0 15 10 24.5t24 9.5q15 0 24.5 -9.5z" />
    <glyph glyph-name="fraction" unicode="&#x2044;" horiz-adv-x="144" 
d="M236 700h42l-370 -700h-43z" />
    <glyph glyph-name="uni2070" unicode="&#x2070;" horiz-adv-x="378" 
d="M84 485.5q-39 41.5 -39 114.5v57q0 73 39 114.5t105 41.5q65 0 104.5 -41.5t39.5 -114.5v-57q0 -73 -39.5 -114.5t-104.5 -41.5q-66 0 -105 41.5zM266.5 511.5q28.5 31.5 28.5 88.5v57q0 56 -28.5 88t-77.5 32q-50 0 -78.5 -31.5t-28.5 -88.5v-57q0 -57 28.5 -88.5
t78.5 -31.5q49 0 77.5 31.5z" />
    <glyph glyph-name="uni2074" unicode="&#x2074;" horiz-adv-x="338" 
d="M302 572v-35h-42v-86h-37v86h-193l-6 28l188 241h48v-234h42zM73 572h150v190z" />
    <glyph glyph-name="uni2075" unicode="&#x2075;" horiz-adv-x="351" 
d="M277.5 641.5q37.5 -29.5 37.5 -81.5q0 -55 -37.5 -85.5t-103.5 -30.5q-62 0 -97 26.5t-35 75.5h37q0 -33 24.5 -49.5t71.5 -16.5q49 0 76 21t27 58t-26.5 57t-77.5 20h-122v170h245v-36h-209v-99h86q66 0 103.5 -29.5z" />
    <glyph glyph-name="uni2076" unicode="&#x2076;" horiz-adv-x="366" 
d="M288 636q38 -31 38 -80t-38 -80.5t-97 -31.5t-98 31.5t-39 80.5v141q0 53 36.5 84.5t99.5 31.5q58 0 90.5 -23.5t37.5 -68.5h-37q-6 56 -91 56q-48 0 -74 -21t-26 -59v-67q43 37 101 37q59 0 97 -31zM261.5 501q28.5 22 28.5 55t-28.5 54.5t-71.5 21.5t-71.5 -22
t-28.5 -54q0 -33 28.5 -55t71.5 -22t71.5 22z" />
    <glyph glyph-name="uni2077" unicode="&#x2077;" horiz-adv-x="308" 
d="M287 806l4 -21l-187 -334h-42l178 319h-211v36h258z" />
    <glyph glyph-name="uni2078" unicode="&#x2078;" horiz-adv-x="376" 
d="M312.5 601.5q19.5 -24.5 19.5 -56.5q0 -44 -40 -72.5t-104 -28.5t-104 28.5t-40 72.5q0 32 19.5 56.5t50.5 32.5q-28 11 -44 33t-16 49q0 43 37.5 70t96.5 27t96.5 -27.5t37.5 -69.5q0 -27 -16 -49t-44 -33q31 -8 50.5 -32.5zM118 668q27 -18 70 -18t70 18t27 47
q0 28 -27 46t-70 18t-70 -18t-27 -46q0 -29 27 -47zM265.5 497.5q29.5 19.5 29.5 50.5t-30 50.5t-77 19.5t-77 -19.5t-30 -50.5t30 -50.5t77 -19.5q48 0 77.5 19.5z" />
    <glyph glyph-name="uni2079" unicode="&#x2079;" horiz-adv-x="364" 
d="M273.5 782q37.5 -31 37.5 -80v-144q0 -53 -35 -83.5t-98 -30.5q-59 0 -93 23.5t-38 66.5h37q3 -27 27 -41t67 -14q46 0 71 20.5t25 58.5v70q-37 -36 -100 -36q-60 0 -97.5 30.5t-37.5 79.5t38 80t98 31q61 0 98.5 -31zM246.5 647.5q27.5 20.5 27.5 54.5t-27.5 54.5
t-71.5 20.5t-71.5 -20.5t-27.5 -54.5t27.5 -54.5t71.5 -20.5t71.5 20.5z" />
    <glyph glyph-name="uni2080" unicode="&#x2080;" horiz-adv-x="378" 
d="M84 -53.5q-39 41.5 -39 114.5v57q0 73 39 114.5t105 41.5q65 0 104.5 -41.5t39.5 -114.5v-57q0 -73 -39.5 -114.5t-104.5 -41.5q-66 0 -105 41.5zM266.5 -27.5q28.5 31.5 28.5 88.5v57q0 56 -28.5 88t-77.5 32q-50 0 -78.5 -31.5t-28.5 -88.5v-57q0 -57 28.5 -88.5
t78.5 -31.5q49 0 77.5 31.5z" />
    <glyph glyph-name="uni2081" unicode="&#x2081;" horiz-adv-x="227" 
d="M137 -52h64v-36h-170v36h69v280l-57 -14v36l91 21h3v-323z" />
    <glyph glyph-name="uni2082" unicode="&#x2082;" horiz-adv-x="353" 
d="M80 -51h228v-37h-265v79q0 53 35.5 80.5t99.5 28.5q49 1 72 17t23 51q0 34 -24.5 52t-70.5 18q-48 0 -71 -17t-23 -53h-36q0 50 34 78t96 28t97 -28.5t35 -77.5q0 -100 -127 -102q-103 -2 -103 -74v-43z" />
    <glyph glyph-name="uni2083" unicode="&#x2083;" horiz-adv-x="351" 
d="M290 63.5q18 -24.5 18 -53.5q0 -49 -36.5 -77t-98.5 -28t-97.5 28t-37.5 78h38q0 -32 26 -51t71 -19q46 0 72 18.5t26 51.5q0 29 -27.5 49.5t-67.5 20.5h-55v34h53q40 0 65.5 17.5t25.5 44.5t-26 44.5t-67 17.5q-40 0 -63.5 -17t-25.5 -47h-36q2 46 35.5 72.5t89.5 26.5
q58 0 93.5 -26.5t35.5 -69.5q0 -28 -16.5 -50t-42.5 -30q30 -10 48 -34.5z" />
    <glyph glyph-name="uni2084" unicode="&#x2084;" horiz-adv-x="338" 
d="M302 33v-35h-42v-86h-37v86h-193l-6 28l188 241h48v-234h42zM73 33h150v190z" />
    <glyph glyph-name="uni2085" unicode="&#x2085;" horiz-adv-x="351" 
d="M277.5 102.5q37.5 -29.5 37.5 -81.5q0 -55 -37.5 -85.5t-103.5 -30.5q-62 0 -97 26.5t-35 75.5h37q0 -33 24.5 -49.5t71.5 -16.5q49 0 76 21t27 58t-26.5 57t-77.5 20h-122v170h245v-36h-209v-99h86q66 0 103.5 -29.5z" />
    <glyph glyph-name="uni2086" unicode="&#x2086;" horiz-adv-x="366" 
d="M288 97q38 -31 38 -80t-38 -80.5t-97 -31.5t-98 31.5t-39 80.5v141q0 53 36.5 84.5t99.5 31.5q58 0 90.5 -23.5t37.5 -68.5h-37q-6 56 -91 56q-48 0 -74 -21t-26 -59v-67q43 37 101 37q59 0 97 -31zM261.5 -38q28.5 22 28.5 55t-28.5 54.5t-71.5 21.5t-71.5 -22
t-28.5 -54q0 -33 28.5 -55t71.5 -22t71.5 22z" />
    <glyph glyph-name="uni2087" unicode="&#x2087;" horiz-adv-x="308" 
d="M287 267l4 -21l-187 -334h-42l178 319h-211v36h258z" />
    <glyph glyph-name="uni2088" unicode="&#x2088;" horiz-adv-x="376" 
d="M312.5 62.5q19.5 -24.5 19.5 -56.5q0 -44 -40 -72.5t-104 -28.5t-104 28.5t-40 72.5q0 32 19.5 56.5t50.5 32.5q-28 11 -44 33t-16 49q0 43 37.5 70t96.5 27t96.5 -27.5t37.5 -69.5q0 -27 -16 -49t-44 -33q31 -8 50.5 -32.5zM118 129q27 -18 70 -18t70 18t27 47
q0 28 -27 46t-70 18t-70 -18t-27 -46q0 -29 27 -47zM265.5 -41.5q29.5 19.5 29.5 50.5t-30 50.5t-77 19.5t-77 -19.5t-30 -50.5t30 -50.5t77 -19.5q48 0 77.5 19.5z" />
    <glyph glyph-name="uni2089" unicode="&#x2089;" horiz-adv-x="364" 
d="M273.5 243q37.5 -31 37.5 -80v-144q0 -53 -35 -83.5t-98 -30.5q-59 0 -93 23.5t-38 66.5h37q3 -27 27 -41t67 -14q46 0 71 20.5t25 58.5v70q-37 -36 -100 -36q-60 0 -97.5 30.5t-37.5 79.5t38 80t98 31q61 0 98.5 -31zM246.5 108.5q27.5 20.5 27.5 54.5t-27.5 54.5
t-71.5 20.5t-71.5 -20.5t-27.5 -54.5t27.5 -54.5t71.5 -20.5t71.5 20.5z" />
    <glyph glyph-name="Euro" unicode="&#x20ac;" horiz-adv-x="624" 
d="M579 14q-56 -21 -117 -21q-139 0 -231 72.5t-115 199.5h-85l9 38h71q-2 28 -2 43t2 43h-80l9 39h76q23 132 115 206.5t235 74.5q46 0 87 -11l-9 -40q-38 9 -78 9q-124 0 -204.5 -63t-102.5 -176h285l-10 -39h-280q-2 -28 -2 -42q0 -16 2 -44h257l-10 -38h-241
q23 -108 102 -169t200 -61q53 0 106 19z" />
    <glyph glyph-name="uni20B4" unicode="&#x20b4;" horiz-adv-x="665" 
d="M639 434v-38h-619v38h468q51 35 51 96q0 65 -58.5 102.5t-151.5 37.5q-67 0 -122.5 -23.5t-88.5 -66.5l-30 30q90 102 240 102q74 0 132 -22t90.5 -63.5t32.5 -96.5q0 -57 -32 -96h88zM20 323h619v-39h-476q-32 -19 -45.5 -44t-13.5 -61q0 -70 60 -109t161 -39
q78 0 145.5 35.5t98.5 91.5l34 -25q-39 -66 -114.5 -105t-163.5 -39q-121 0 -193 50t-72 139q0 66 40 106h-80v39z" />
    <glyph glyph-name="uni20BA" unicode="&#x20ba;" horiz-adv-x="574" 
d="M542 261v-24q0 -71 -28 -124.5t-79 -83t-118 -29.5h-205v260l-90 -33v43l90 33v113l-90 -33v43l90 33v241h43v-226l265 97v-43l-265 -97v-112l265 97v-43l-265 -97v-234h158q83 0 134.5 51.5t51.5 143.5v24h43z" />
    <glyph glyph-name="uni20BD" unicode="&#x20bd;" horiz-adv-x="661" 
d="M518 671.5q51 -28.5 78 -78.5t27 -115t-27 -115t-78 -78t-122 -28h-245v-85h220v-41h-220v-131h-44v131h-78v41h78v85h-78v41h78v402h289q71 0 122 -28.5zM531.5 347q47.5 49 47.5 131t-47.5 130.5t-136.5 48.5h-244v-359h244q89 0 136.5 49z" />
    <glyph glyph-name="uni2113" unicode="&#x2113;" horiz-adv-x="480" 
d="M408 57l13 -37q-61 -26 -122 -26q-94 0 -140.5 47t-46.5 143v23q-42 -11 -83 -17v41q45 8 83 18v289q0 82 41.5 127.5t116.5 45.5q76 0 118.5 -45.5t42.5 -127.5q0 -107 -73.5 -191t-203.5 -128v-31q0 -79 35 -116t111 -37q52 0 108 22zM154 262q112 40 173.5 111.5
t61.5 163.5q0 65 -30.5 99t-88.5 34q-56 0 -86 -34t-30 -100v-274z" />
    <glyph glyph-name="uni2116" unicode="&#x2116;" horiz-adv-x="1057" 
d="M779.5 491.5q-35.5 34.5 -35.5 90.5q0 54 35.5 89t92.5 35q56 0 91.5 -35t35.5 -89q0 -55 -35.5 -90t-91.5 -35q-57 0 -92.5 34.5zM608 700h44v-700h-44l-463 631v-631h-44v700h46l461 -629v629zM805.5 646.5q-25.5 -24.5 -25.5 -64.5t25.5 -65t66.5 -25t66 25t25 65
t-25 64.5t-66 24.5t-66.5 -24.5zM753 347v35h238v-35h-238z" />
    <glyph glyph-name="uni2117" unicode="&#x2117;" horiz-adv-x="837" 
d="M606 666q82 -46 127.5 -128.5t45.5 -187.5t-45.5 -187.5t-127.5 -128.5t-187 -46q-104 0 -186.5 46t-128.5 128.5t-46 187.5t46 187.5t128 128.5t187 46t187 -46zM586 67q73 41 113.5 114.5t40.5 168.5t-40.5 168.5t-113.5 114.5t-167 41t-167 -41t-113.5 -115
t-40.5 -168t40.5 -168t113.5 -115t167 -41t167 41zM560.5 499q35.5 -34 35.5 -88t-35.5 -88.5t-91.5 -34.5h-129v-137h-39v382h168q56 0 91.5 -34zM532 349q25 23 25 62q0 38 -25 61.5t-66 23.5h-126v-170h126q41 0 66 23z" />
    <glyph glyph-name="trademark" unicode="&#x2122;" horiz-adv-x="786" 
d="M62 667v33h266v-33h-115v-246h-36v246h-115zM671 700h30v-279h-36v216l-111 -143h-11l-111 142v-215h-36v279h30l123 -158z" />
    <glyph glyph-name="uni2126" unicode="&#x2126;" horiz-adv-x="823" 
d="M715.5 169q-48.5 -87 -127.5 -128h148v-41h-247v40q67 16 119.5 62t82.5 112t30 141q0 93 -38.5 164.5t-109 110.5t-162.5 39t-162 -39t-108.5 -110.5t-38.5 -164.5q0 -75 29.5 -141t82.5 -112t120 -62v-40h-247v41h148q-79 41 -127.5 128t-48.5 187q0 104 44.5 184.5
t124.5 125t183 44.5q104 0 184 -44.5t124.5 -125t44.5 -184.5q0 -100 -48.5 -187z" />
    <glyph glyph-name="estimated" unicode="&#x212e;" horiz-adv-x="635" 
d="M185 263v-176q60 -47 141 -47q64 0 110 22.5t80 70.5l37 -29q-41 -58 -96 -84.5t-131 -26.5q-80 0 -141 36.5t-94 103.5t-33 156t33 156.5t93.5 104t140.5 36.5q129 0 196 -72.5t67 -211.5q0 -26 -1 -39h-402zM325 539q-84 0 -140 -47v-182h283v188q-53 41 -143 41z" />
    <glyph glyph-name="uni2150" unicode="&#x2150;" horiz-adv-x="709" 
d="M137 381h64v-36h-170v36h69v280l-57 -14v36l91 21h3v-323zM493 700h42l-370 -700h-43zM688 355l4 -21l-187 -334h-42l178 319h-211v36h258z" />
    <glyph glyph-name="uni2151" unicode="&#x2151;" horiz-adv-x="765" 
d="M137 381h64v-36h-170v36h69v280l-57 -14v36l91 21h3v-323zM493 700h42l-370 -700h-43zM674.5 331q37.5 -31 37.5 -80v-144q0 -53 -35 -83.5t-98 -30.5q-59 0 -93 23.5t-38 66.5h37q3 -27 27 -41t67 -14q46 0 71 20.5t25 58.5v70q-37 -36 -100 -36q-60 0 -97.5 30.5
t-37.5 79.5t38 80t98 31q61 0 98.5 -31zM647.5 196.5q27.5 20.5 27.5 54.5t-27.5 54.5t-71.5 20.5t-71.5 -20.5t-27.5 -54.5t27.5 -54.5t71.5 -20.5t71.5 20.5z" />
    <glyph glyph-name="uni2153" unicode="&#x2153;" horiz-adv-x="752" 
d="M137 381h64v-36h-170v36h69v280l-57 -14v36l91 21h3v-323zM493 700h42l-370 -700h-43zM691 151.5q18 -24.5 18 -53.5q0 -49 -36.5 -77t-98.5 -28t-97.5 28t-37.5 78h38q0 -32 26 -51t71 -19q46 0 72 18.5t26 51.5q0 29 -27.5 49.5t-67.5 20.5h-55v34h53q40 0 65.5 17.5
t25.5 44.5t-26 44.5t-67 17.5q-40 0 -63.5 -17t-25.5 -47h-36q2 46 35.5 72.5t89.5 26.5q58 0 93.5 -26.5t35.5 -69.5q0 -28 -16.5 -50t-42.5 -30q30 -10 48 -34.5z" />
    <glyph glyph-name="uni2154" unicode="&#x2154;" horiz-adv-x="848" 
d="M80 382h228v-37h-265v79q0 53 35.5 80.5t99.5 28.5q49 1 72 17t23 51q0 34 -24.5 52t-70.5 18q-48 0 -71 -17t-23 -53h-36q0 50 34 78t96 28t97 -28.5t35 -77.5q0 -100 -127 -102q-103 -2 -103 -74v-43zM589 700h42l-370 -700h-43zM787 151.5q18 -24.5 18 -53.5
q0 -49 -36.5 -77t-98.5 -28t-97.5 28t-37.5 78h38q0 -32 26 -51t71 -19q46 0 72 18.5t26 51.5q0 29 -27.5 49.5t-67.5 20.5h-55v34h53q40 0 65.5 17.5t25.5 44.5t-26 44.5t-67 17.5q-40 0 -63.5 -17t-25.5 -47h-36q2 46 35.5 72.5t89.5 26.5q58 0 93.5 -26.5t35.5 -69.5
q0 -28 -16.5 -50t-42.5 -30q30 -10 48 -34.5z" />
    <glyph glyph-name="uni2155" unicode="&#x2155;" horiz-adv-x="752" 
d="M137 381h64v-36h-170v36h69v280l-57 -14v36l91 21h3v-323zM493 700h42l-370 -700h-43zM678.5 190.5q37.5 -29.5 37.5 -81.5q0 -55 -37.5 -85.5t-103.5 -30.5q-62 0 -97 26.5t-35 75.5h37q0 -33 24.5 -49.5t71.5 -16.5q49 0 76 21t27 58t-26.5 57t-77.5 20h-122v170h245
v-36h-209v-99h86q66 0 103.5 -29.5z" />
    <glyph glyph-name="uni2156" unicode="&#x2156;" horiz-adv-x="848" 
d="M80 382h228v-37h-265v79q0 53 35.5 80.5t99.5 28.5q49 1 72 17t23 51q0 34 -24.5 52t-70.5 18q-48 0 -71 -17t-23 -53h-36q0 50 34 78t96 28t97 -28.5t35 -77.5q0 -100 -127 -102q-103 -2 -103 -74v-43zM589 700h42l-370 -700h-43zM774.5 190.5q37.5 -29.5 37.5 -81.5
q0 -55 -37.5 -85.5t-103.5 -30.5q-62 0 -97 26.5t-35 75.5h37q0 -33 24.5 -49.5t71.5 -16.5q49 0 76 21t27 58t-26.5 57t-77.5 20h-122v170h245v-36h-209v-99h86q66 0 103.5 -29.5z" />
    <glyph glyph-name="uni2157" unicode="&#x2157;" horiz-adv-x="846" 
d="M290 496.5q18 -24.5 18 -53.5q0 -49 -36.5 -77t-98.5 -28t-97.5 28t-37.5 78h38q0 -32 26 -51t71 -19q46 0 72 18.5t26 51.5q0 29 -27.5 49.5t-67.5 20.5h-55v34h53q40 0 65.5 17.5t25.5 44.5t-26 44.5t-67 17.5q-40 0 -63.5 -17t-25.5 -47h-36q2 46 35.5 72.5t89.5 26.5
q58 0 93.5 -26.5t35.5 -69.5q0 -28 -16.5 -50t-42.5 -30q30 -10 48 -34.5zM587 700h42l-370 -700h-43zM772.5 190.5q37.5 -29.5 37.5 -81.5q0 -55 -37.5 -85.5t-103.5 -30.5q-62 0 -97 26.5t-35 75.5h37q0 -33 24.5 -49.5t71.5 -16.5q49 0 76 21t27 58t-26.5 57t-77.5 20
h-122v170h245v-36h-209v-99h86q66 0 103.5 -29.5z" />
    <glyph glyph-name="uni2158" unicode="&#x2158;" horiz-adv-x="833" 
d="M302 466v-35h-42v-86h-37v86h-193l-6 28l188 241h48v-234h42zM73 466h150v190zM574 700h42l-370 -700h-43zM759.5 190.5q37.5 -29.5 37.5 -81.5q0 -55 -37.5 -85.5t-103.5 -30.5q-62 0 -97 26.5t-35 75.5h37q0 -33 24.5 -49.5t71.5 -16.5q49 0 76 21t27 58t-26.5 57
t-77.5 20h-122v170h245v-36h-209v-99h86q66 0 103.5 -29.5z" />
    <glyph glyph-name="uni2159" unicode="&#x2159;" horiz-adv-x="767" 
d="M137 381h64v-36h-170v36h69v280l-57 -14v36l91 21h3v-323zM493 700h42l-370 -700h-43zM689 185q38 -31 38 -80t-38 -80.5t-97 -31.5t-98 31.5t-39 80.5v141q0 53 36.5 84.5t99.5 31.5q58 0 90.5 -23.5t37.5 -68.5h-37q-6 56 -91 56q-48 0 -74 -21t-26 -59v-67
q43 37 101 37q59 0 97 -31zM662.5 50q28.5 22 28.5 55t-28.5 54.5t-71.5 21.5t-71.5 -22t-28.5 -54q0 -33 28.5 -55t71.5 -22t71.5 22z" />
    <glyph glyph-name="uni215A" unicode="&#x215a;" horiz-adv-x="861" 
d="M277.5 535.5q37.5 -29.5 37.5 -81.5q0 -55 -37.5 -85.5t-103.5 -30.5q-62 0 -97 26.5t-35 75.5h37q0 -33 24.5 -49.5t71.5 -16.5q49 0 76 21t27 58t-26.5 57t-77.5 20h-122v170h245v-36h-209v-99h86q66 0 103.5 -29.5zM587 700h42l-370 -700h-43zM783 185q38 -31 38 -80
t-38 -80.5t-97 -31.5t-98 31.5t-39 80.5v141q0 53 36.5 84.5t99.5 31.5q58 0 90.5 -23.5t37.5 -68.5h-37q-6 56 -91 56q-48 0 -74 -21t-26 -59v-67q43 37 101 37q59 0 97 -31zM756.5 50q28.5 22 28.5 55t-28.5 54.5t-71.5 21.5t-71.5 -22t-28.5 -54q0 -33 28.5 -55t71.5 -22
t71.5 22z" />
    <glyph glyph-name="oneeighth" unicode="&#x215b;" horiz-adv-x="777" 
d="M137 381h64v-36h-170v36h69v280l-57 -14v36l91 21h3v-323zM493 700h42l-370 -700h-43zM713.5 150.5q19.5 -24.5 19.5 -56.5q0 -44 -40 -72.5t-104 -28.5t-104 28.5t-40 72.5q0 32 19.5 56.5t50.5 32.5q-28 11 -44 33t-16 49q0 43 37.5 70t96.5 27t96.5 -27.5t37.5 -69.5
q0 -27 -16 -49t-44 -33q31 -8 50.5 -32.5zM519 217q27 -18 70 -18t70 18t27 47q0 28 -27 46t-70 18t-70 -18t-27 -46q0 -29 27 -47zM666.5 46.5q29.5 19.5 29.5 50.5t-30 50.5t-77 19.5t-77 -19.5t-30 -50.5t30 -50.5t77 -19.5q48 0 77.5 19.5z" />
    <glyph glyph-name="threeeighths" unicode="&#x215c;" horiz-adv-x="871" 
d="M290 496.5q18 -24.5 18 -53.5q0 -49 -36.5 -77t-98.5 -28t-97.5 28t-37.5 78h38q0 -32 26 -51t71 -19q46 0 72 18.5t26 51.5q0 29 -27.5 49.5t-67.5 20.5h-55v34h53q40 0 65.5 17.5t25.5 44.5t-26 44.5t-67 17.5q-40 0 -63.5 -17t-25.5 -47h-36q2 46 35.5 72.5t89.5 26.5
q58 0 93.5 -26.5t35.5 -69.5q0 -28 -16.5 -50t-42.5 -30q30 -10 48 -34.5zM587 700h42l-370 -700h-43zM807.5 150.5q19.5 -24.5 19.5 -56.5q0 -44 -40 -72.5t-104 -28.5t-104 28.5t-40 72.5q0 32 19.5 56.5t50.5 32.5q-28 11 -44 33t-16 49q0 43 37.5 70t96.5 27t96.5 -27.5
t37.5 -69.5q0 -27 -16 -49t-44 -33q31 -8 50.5 -32.5zM613 217q27 -18 70 -18t70 18t27 47q0 28 -27 46t-70 18t-70 -18t-27 -46q0 -29 27 -47zM760.5 46.5q29.5 19.5 29.5 50.5t-30 50.5t-77 19.5t-77 -19.5t-30 -50.5t30 -50.5t77 -19.5q48 0 77.5 19.5z" />
    <glyph glyph-name="fiveeighths" unicode="&#x215d;" horiz-adv-x="871" 
d="M277.5 535.5q37.5 -29.5 37.5 -81.5q0 -55 -37.5 -85.5t-103.5 -30.5q-62 0 -97 26.5t-35 75.5h37q0 -33 24.5 -49.5t71.5 -16.5q49 0 76 21t27 58t-26.5 57t-77.5 20h-122v170h245v-36h-209v-99h86q66 0 103.5 -29.5zM587 700h42l-370 -700h-43zM807.5 150.5
q19.5 -24.5 19.5 -56.5q0 -44 -40 -72.5t-104 -28.5t-104 28.5t-40 72.5q0 32 19.5 56.5t50.5 32.5q-28 11 -44 33t-16 49q0 43 37.5 70t96.5 27t96.5 -27.5t37.5 -69.5q0 -27 -16 -49t-44 -33q31 -8 50.5 -32.5zM613 217q27 -18 70 -18t70 18t27 47q0 28 -27 46t-70 18
t-70 -18t-27 -46q0 -29 27 -47zM760.5 46.5q29.5 19.5 29.5 50.5t-30 50.5t-77 19.5t-77 -19.5t-30 -50.5t30 -50.5t77 -19.5q48 0 77.5 19.5z" />
    <glyph glyph-name="seveneighths" unicode="&#x215e;" horiz-adv-x="802" 
d="M287 700l4 -21l-187 -334h-42l178 319h-211v36h258zM518 700h42l-370 -700h-43zM738.5 150.5q19.5 -24.5 19.5 -56.5q0 -44 -40 -72.5t-104 -28.5t-104 28.5t-40 72.5q0 32 19.5 56.5t50.5 32.5q-28 11 -44 33t-16 49q0 43 37.5 70t96.5 27t96.5 -27.5t37.5 -69.5
q0 -27 -16 -49t-44 -33q31 -8 50.5 -32.5zM544 217q27 -18 70 -18t70 18t27 47q0 28 -27 46t-70 18t-70 -18t-27 -46q0 -29 27 -47zM691.5 46.5q29.5 19.5 29.5 50.5t-30 50.5t-77 19.5t-77 -19.5t-30 -50.5t30 -50.5t77 -19.5q48 0 77.5 19.5z" />
    <glyph glyph-name="arrowleft" unicode="&#x2190;" horiz-adv-x="651" 
d="M577 369v-44h-446l157 -159l-28 -28l-209 209l209 209l28 -27l-158 -160h447z" />
    <glyph glyph-name="arrowup" unicode="&#x2191;" horiz-adv-x="485" 
d="M452 405l-28 -28l-159 157v-446h-44v447l-160 -158l-27 28l209 209z" />
    <glyph glyph-name="arrowright" unicode="&#x2192;" horiz-adv-x="651" 
d="M391 556l209 -209l-209 -209l-28 28l157 159h-446v44h447l-158 160z" />
    <glyph glyph-name="arrowdown" unicode="&#x2193;" horiz-adv-x="485" 
d="M424 325l28 -28l-209 -209l-209 209l27 28l160 -158v447h44v-446z" />
    <glyph glyph-name="uni2196" unicode="&#x2196;" horiz-adv-x="501" 
d="M457 168l-31 -31l-315 315l-2 -224l-39 1v295h296v-39l-225 -1z" />
    <glyph glyph-name="uni2197" unicode="&#x2197;" horiz-adv-x="501" 
d="M135 524h296l-1 -296h-39l-1 224l-316 -315l-31 31l317 316l-225 1v39z" />
    <glyph glyph-name="uni2198" unicode="&#x2198;" horiz-adv-x="501" 
d="M135 180v39l225 1l-317 316l31 31l316 -315l1 224l39 -1l1 -295h-296z" />
    <glyph glyph-name="uni2199" unicode="&#x2199;" horiz-adv-x="501" 
d="M457 536l-316 -316l225 -1v-39h-296v295l39 1l1 -225l316 316z" />
    <glyph glyph-name="partialdiff" unicode="&#x2202;" horiz-adv-x="610" 
d="M557 248q0 -75 -31.5 -133.5t-89 -90.5t-133.5 -32q-81 0 -138 34.5t-86 91.5t-29 124q0 65 29 122.5t86 92.5t137 35q61 0 113.5 -26.5t81.5 -70.5q-33 93 -109.5 163t-179.5 105l14 36q335 -127 335 -451zM418 61q48 30 72.5 78t24.5 103t-24.5 103.5t-72.5 78
t-115 29.5q-66 0 -114 -29t-72.5 -77.5t-24.5 -104.5q0 -57 24.5 -105.5t72 -77t114.5 -28.5t115 30z" />
    <glyph glyph-name="emptyset" unicode="&#x2205;" horiz-adv-x="693" 
d="M611.5 434.5q32.5 -64.5 32.5 -141.5q0 -84 -39 -152.5t-106.5 -107.5t-151.5 -39q-78 0 -143 34l-49 -80h-43l61 99q-58 41 -90.5 105t-32.5 141q0 84 38.5 152.5t106.5 107.5t152 39q77 0 142 -34l49 80h44l-61 -99q58 -40 90.5 -104.5zM119 172.5q27 -54.5 75 -90.5
l273 441q-53 29 -120 29q-72 0 -130.5 -34t-91.5 -93t-33 -132q0 -66 27 -120.5zM477.5 68q58.5 34 91.5 93t33 132q0 66 -27.5 121t-75.5 90l-274 -441q55 -29 122 -29q72 0 130.5 34z" />
    <glyph glyph-name="uni2206" unicode="&#x2206;" horiz-adv-x="738" 
d="M391 700l319 -700h-682l319 700h44zM369 647l-276 -606h551z" />
    <glyph glyph-name="product" unicode="&#x220f;" horiz-adv-x="687" 
d="M101 700h484v-887h-43v845h-398v-845h-43v887z" />
    <glyph glyph-name="summation" unicode="&#x2211;" horiz-adv-x="581" 
d="M105 42h419v-42h-484v25l261 334l-242 316v25h459v-42h-395l224 -291v-16z" />
    <glyph glyph-name="minus" unicode="&#x2212;" horiz-adv-x="522" 
d="M74 363h374v-41h-374v41z" />
    <glyph glyph-name="uni2215" unicode="&#x2215;" horiz-adv-x="411" 
d="M368 700h44l-369 -700h-44z" />
    <glyph glyph-name="uni2219" unicode="&#x2219;" horiz-adv-x="219" 
d="M83.5 284q-9.5 10 -9.5 26q0 15 9.5 25t25.5 10t26 -10t10 -25q0 -16 -10 -26t-26 -10t-25.5 10z" />
    <glyph glyph-name="radical" unicode="&#x221a;" horiz-adv-x="632" 
d="M556 710l37 -10l-241 -700h-41l-174 374l-96 -43l-15 33l134 60l170 -371z" />
    <glyph glyph-name="infinity" unicode="&#x221e;" horiz-adv-x="816" 
d="M672 462q34 -21 53 -56.5t19 -78.5t-19 -78.5t-53 -56t-77 -20.5q-59 0 -101.5 33t-85.5 93q-43 -60 -85.5 -93t-101.5 -33q-43 0 -77 20.5t-53 56t-19 78.5t19 79t53 56.5t77 20.5q59 0 101.5 -33t85.5 -93q43 60 85.5 93t101.5 33q43 0 77 -21zM308.5 239
q34.5 30 77.5 89q-43 59 -77.5 88.5t-82.5 29.5q-51 0 -83 -33t-32 -86q0 -52 32.5 -85t82.5 -33q48 0 82.5 30zM672.5 242q32.5 33 32.5 85q0 53 -32 86t-83 33q-48 0 -82.5 -29.5t-77.5 -88.5q43 -59 77.5 -89t82.5 -30q50 0 82.5 33z" />
    <glyph glyph-name="integral" unicode="&#x222b;" horiz-adv-x="442" 
d="M14 -131l21 31q33 -24 74 -24q43 0 62.5 29.5t19.5 94.5v592q0 162 142 162q55 0 98 -34l-21 -30q-32 25 -77 25q-52 0 -76 -29.5t-24 -93.5v-592q0 -163 -121 -163q-52 0 -98 32z" />
    <glyph glyph-name="approxequal" unicode="&#x2248;" horiz-adv-x="614" 
d="M371 348.5q-26 10.5 -65 31.5q-32 19 -54.5 28.5t-46.5 9.5q-32 0 -55.5 -16.5t-38.5 -47.5l-35 15q17 40 50 63.5t75 23.5q30 0 56.5 -10.5t63.5 -31.5q33 -18 55.5 -27.5t45.5 -9.5q48 0 74 54l33 -17q-34 -76 -103 -76q-29 0 -55 10.5zM369 178q-27 11 -63 31
q-34 19 -56 28t-45 9q-64 0 -94 -64l-35 16q17 39 50 63t75 24q30 0 56.5 -10.5t63.5 -31.5q33 -18 55.5 -27.5t45.5 -9.5q48 0 74 53l33 -16q-34 -76 -103 -76q-30 0 -57 11z" />
    <glyph glyph-name="notequal" unicode="&#x2260;" horiz-adv-x="545" 
d="M470 396h-127l-101 -157h228v-40h-254l-51 -79l-29 18l39 61h-101v40h127l102 157h-229v40h255l51 79l28 -18l-39 -61h101v-40z" />
    <glyph glyph-name="lessequal" unicode="&#x2264;" horiz-adv-x="453" 
d="M352 252l-26 -33l-237 167v24l237 168l26 -33l-214 -147zM83 125h287v-41h-287v41z" />
    <glyph glyph-name="greaterequal" unicode="&#x2265;" horiz-adv-x="453" 
d="M127 219l-26 33l214 146l-214 147l26 33l237 -168v-24zM83 125h287v-41h-287v41z" />
    <glyph glyph-name="lozenge" unicode="&#x25ca;" horiz-adv-x="577" 
d="M306 700l219 -350l-219 -350h-36l-219 350l219 350h36zM289 46l189 304l-189 303l-190 -303z" />
    <glyph glyph-name="uniF8FF" unicode="&#xf8ff;" horiz-adv-x="1160" 
d="M50 450v42h33v18q0 27 15 43t44 16h38v-42h-29q-20 0 -20 -19v-16h49v-42h-47v-144h-52v144h-31zM1018 476q-15 15 -15 38t15 38t37 15q23 0 38 -15t15 -38q0 -22 -15 -37.5t-38 -15.5q-22 0 -37 15zM1085 485q12 12 12 29t-13 29t-29 12q-17 0 -29 -12t-12 -29t12 -29
t29 -12q18 0 30 12zM685.5 324.5q-18.5 18.5 -18.5 49.5v79h-33v11l75 79h8v-49h53v-41h-50v-73q0 -28 28 -28h22v-46h-35q-31 0 -49.5 18.5zM1058 541q9 0 15 -5t6 -13q0 -5 -3.5 -9.5t-8.5 -5.5l14 -21h-14l-12 19h-6v-19h-14v54h23zM1065 523q0 7 -7 7h-9v-14h9q7 0 7 7z
M222.5 329q-29.5 28 -29.5 71t29.5 72t73.5 29q43 0 72 -29t29 -72t-29 -71t-72 -28q-44 0 -73.5 28zM469 494l9 -22q25 27 62 27q32 0 51 -21.5t19 -57.5v-114h-51v107q0 42 -33 42q-19 0 -30 -14t-11 -37v-98h-51v188h35zM331.5 363q14.5 14 14.5 37t-14.5 38t-35.5 15
q-23 0 -37 -15t-14 -38t14 -37t37 -14q21 0 35.5 14zM50 145v42h33v18q0 27 15 43t44 16h38v-42h-29q-20 0 -20 -20v-15h49v-42h-47v-145h-52v145h-31zM827 262h51v-46h-51v46zM489 16l-4 -16h-40v257h53v-79q21 18 50 18q43 0 71 -29t28 -72t-28 -71t-71 -28q-31 0 -59 20z
M220.5 24q-27.5 28 -27.5 71t28 72t70 29q38 0 62 -24l7 17h37v-189h-40l-4 18q-25 -22 -62 -22q-43 0 -70.5 28zM942 25q-29 29 -29 70q0 43 29 72t72 29q36 0 63 -22t33 -57h-50q-13 30 -46 30q-22 0 -35.5 -14.5t-13.5 -37.5q0 -22 14.5 -36.5t34.5 -14.5q15 0 27 8
t19 23h50q-6 -35 -33 -57t-63 -22q-43 0 -72 29zM717 189l9 -22q20 24 55 24h15v-48h-22q-21 0 -30 -10.5t-9 -33.5v-99h-51v189h33zM827 189h51v-189h-51v189zM334 58.5q15 14.5 15 36.5q0 23 -15 37.5t-38 14.5q-22 0 -36.5 -14.5t-14.5 -37.5q0 -22 14.5 -36.5
t36.5 -14.5q23 0 38 14.5zM582 58.5q15 14.5 15 36.5q0 23 -15 37.5t-38 14.5q-22 0 -36.5 -14.5t-14.5 -37.5q0 -22 14.5 -36.5t36.5 -14.5q23 0 38 14.5z" />
    <glyph glyph-name="uni00A40301" horiz-adv-x="663" 
d="M570 700v-440q0 -80 -34 -141.5t-95.5 -95t-140.5 -33.5q-78 0 -139.5 34.5t-95.5 96t-34 140.5h42q0 -67 29 -119t80.5 -81t117.5 -29q67 0 118 28.5t79.5 80.5t28.5 120v396h-275v43h319zM462 897h50l-86 -117h-41z" />
    <glyph glyph-name="Q.ss02" horiz-adv-x="816" 
d="M225.5 34q-80.5 46 -125.5 128.5t-45 187.5t45 187.5t125.5 128.5t182.5 46t182.5 -46t125.5 -128.5t45 -187.5t-45 -187.5t-125.5 -128.5t-182.5 -46t-182.5 46zM567.5 70.5q70.5 40.5 110 113.5t39.5 166t-39.5 166t-110 113.5t-159.5 40.5t-159.5 -40.5t-110 -113.5
t-39.5 -166t39.5 -166t110 -113.5t159.5 -40.5t159.5 40.5zM408 -83h299v-39h-299v39z" />
    <glyph glyph-name="i.loclTRK" horiz-adv-x="207" 
d="M83 494h42v-494h-42v494zM76.5 621q-10.5 10 -10.5 26t11 26.5t27 10.5t26.5 -10.5t10.5 -26.5t-10.5 -26t-26.5 -10q-17 0 -27.5 10z" />
    <glyph glyph-name="uni006A0301" horiz-adv-x="207" 
d="M-95 -227l15 35q34 -21 75 -21q47 0 67.5 29t20.5 98v580h42v-580q0 -87 -31 -127t-99 -40q-42 0 -90 26zM134 700h50l-69 -121h-41z" />
    <glyph glyph-name="germandbls.calt" horiz-adv-x="705" 
d="M598 385q66 -60 66 -164q0 -110 -69 -169.5t-197 -59.5q-76 0 -142 26l14 40q58 -23 127 -23q110 0 166.5 47.5t56.5 138.5q0 87 -54.5 134.5t-153.5 47.5h-42l-13 29l178 225h-206q-94 0 -139 -45.5t-45 -140.5v-472h-44v473q0 228 227 228h269v-31l-178 -224
q113 0 179 -60z" />
    <glyph glyph-name="a.ss01" horiz-adv-x="551" 
d="M416 452.5q59 -47.5 59 -139.5v-313h-40v109q-33 -59 -86 -88.5t-120 -29.5q-84 0 -137 43t-53 114q0 73 55.5 115t146.5 42q51 0 96.5 -10.5t95.5 -34.5v53q0 73 -47 110.5t-136 37.5q-38 0 -80.5 -10.5t-82.5 -28.5l-10 36q47 22 88.5 32t84.5 10q107 0 166 -47.5z
M331.5 54.5q45.5 24.5 73 68t29.5 98.5q-42 21 -93 33.5t-98 12.5q-73 0 -117.5 -32t-44.5 -87q0 -53 42 -85.5t109 -32.5q54 0 99.5 24.5z" />
    <glyph glyph-name="aacute.ss01" horiz-adv-x="551" 
d="M416 452.5q59 -47.5 59 -139.5v-313h-40v109q-33 -59 -86 -88.5t-120 -29.5q-84 0 -137 43t-53 114q0 73 55.5 115t146.5 42q51 0 96.5 -10.5t95.5 -34.5v53q0 73 -47 110.5t-136 37.5q-38 0 -80.5 -10.5t-82.5 -28.5l-10 36q47 22 88.5 32t84.5 10q107 0 166 -47.5z
M331.5 54.5q45.5 24.5 73 68t29.5 98.5q-42 21 -93 33.5t-98 12.5q-73 0 -117.5 -32t-44.5 -87q0 -53 42 -85.5t109 -32.5q54 0 99.5 24.5zM317 700h50l-85 -121h-41z" />
    <glyph glyph-name="abreve.ss01" horiz-adv-x="551" 
d="M416 452.5q59 -47.5 59 -139.5v-313h-40v109q-33 -59 -86 -88.5t-120 -29.5q-84 0 -137 43t-53 114q0 73 55.5 115t146.5 42q51 0 96.5 -10.5t95.5 -34.5v53q0 73 -47 110.5t-136 37.5q-38 0 -80.5 -10.5t-82.5 -28.5l-10 36q47 22 88.5 32t84.5 10q107 0 166 -47.5z
M331.5 54.5q45.5 24.5 73 68t29.5 98.5q-42 21 -93 33.5t-98 12.5q-73 0 -117.5 -32t-44.5 -87q0 -53 42 -85.5t109 -32.5q54 0 99.5 24.5zM190 623q-34 30 -34 77h35q0 -32 24 -52.5t62 -20.5t61.5 20.5t23.5 52.5h36q0 -46 -34 -76.5t-87 -30.5t-87 30z" />
    <glyph glyph-name="acircumflex.ss01" horiz-adv-x="551" 
d="M416 452.5q59 -47.5 59 -139.5v-313h-40v109q-33 -59 -86 -88.5t-120 -29.5q-84 0 -137 43t-53 114q0 73 55.5 115t146.5 42q51 0 96.5 -10.5t95.5 -34.5v53q0 73 -47 110.5t-136 37.5q-38 0 -80.5 -10.5t-82.5 -28.5l-10 36q47 22 88.5 32t84.5 10q107 0 166 -47.5z
M331.5 54.5q45.5 24.5 73 68t29.5 98.5q-42 21 -93 33.5t-98 12.5q-73 0 -117.5 -32t-44.5 -87q0 -53 42 -85.5t109 -32.5q54 0 99.5 24.5zM420 579h-48l-96 88l-97 -88h-48l126 121h37z" />
    <glyph glyph-name="adieresis.ss01" horiz-adv-x="551" 
d="M416 452.5q59 -47.5 59 -139.5v-313h-40v109q-33 -59 -86 -88.5t-120 -29.5q-84 0 -137 43t-53 114q0 73 55.5 115t146.5 42q51 0 96.5 -10.5t95.5 -34.5v53q0 73 -47 110.5t-136 37.5q-38 0 -80.5 -10.5t-82.5 -28.5l-10 36q47 22 88.5 32t84.5 10q107 0 166 -47.5z
M331.5 54.5q45.5 24.5 73 68t29.5 98.5q-42 21 -93 33.5t-98 12.5q-73 0 -117.5 -32t-44.5 -87q0 -53 42 -85.5t109 -32.5q54 0 99.5 24.5zM156.5 621.5q-10.5 10.5 -10.5 26.5t10.5 26t26.5 10t26.5 -10t10.5 -26t-10.5 -26.5t-26.5 -10.5t-26.5 10.5zM344.5 621.5
q-10.5 10.5 -10.5 26.5t10.5 26t26.5 10t26 -10t10 -26t-10 -26.5t-26 -10.5t-26.5 10.5z" />
    <glyph glyph-name="agrave.ss01" horiz-adv-x="551" 
d="M416 452.5q59 -47.5 59 -139.5v-313h-40v109q-33 -59 -86 -88.5t-120 -29.5q-84 0 -137 43t-53 114q0 73 55.5 115t146.5 42q51 0 96.5 -10.5t95.5 -34.5v53q0 73 -47 110.5t-136 37.5q-38 0 -80.5 -10.5t-82.5 -28.5l-10 36q47 22 88.5 32t84.5 10q107 0 166 -47.5z
M331.5 54.5q45.5 24.5 73 68t29.5 98.5q-42 21 -93 33.5t-98 12.5q-73 0 -117.5 -32t-44.5 -87q0 -53 42 -85.5t109 -32.5q54 0 99.5 24.5zM271 579l-85 121h50l76 -121h-41z" />
    <glyph glyph-name="amacron.ss01" horiz-adv-x="551" 
d="M416 452.5q59 -47.5 59 -139.5v-313h-40v109q-33 -59 -86 -88.5t-120 -29.5q-84 0 -137 43t-53 114q0 73 55.5 115t146.5 42q51 0 96.5 -10.5t95.5 -34.5v53q0 73 -47 110.5t-136 37.5q-38 0 -80.5 -10.5t-82.5 -28.5l-10 36q47 22 88.5 32t84.5 10q107 0 166 -47.5z
M331.5 54.5q45.5 24.5 73 68t29.5 98.5q-42 21 -93 33.5t-98 12.5q-73 0 -117.5 -32t-44.5 -87q0 -53 42 -85.5t109 -32.5q54 0 99.5 24.5zM147 642h259v-35h-259v35z" />
    <glyph glyph-name="aogonek.ss01" horiz-adv-x="551" 
d="M545 -141q-49 -43 -113 -43q-44 0 -70 22.5t-26 61.5q0 71 99 118v91q-33 -59 -86 -88.5t-120 -29.5q-84 0 -137 43t-53 114q0 73 55.5 115t146.5 42q51 0 96.5 -10.5t95.5 -34.5v53q0 73 -47 110.5t-136 37.5q-38 0 -80.5 -10.5t-82.5 -28.5l-10 36q47 22 88.5 32
t84.5 10q107 0 166 -47.5t59 -139.5v-313q-52 -20 -76 -43.5t-24 -52.5q0 -24 16 -37.5t46 -13.5q47 0 86 34zM331.5 54.5q45.5 24.5 73 68t29.5 98.5q-42 21 -93 33.5t-98 12.5q-73 0 -117.5 -32t-44.5 -87q0 -53 42 -85.5t109 -32.5q54 0 99.5 24.5z" />
    <glyph glyph-name="aring.ss01" horiz-adv-x="551" 
d="M416 452.5q59 -47.5 59 -139.5v-313h-40v109q-33 -59 -86 -88.5t-120 -29.5q-84 0 -137 43t-53 114q0 73 55.5 115t146.5 42q51 0 96.5 -10.5t95.5 -34.5v53q0 73 -47 110.5t-136 37.5q-38 0 -80.5 -10.5t-82.5 -28.5l-10 36q47 22 88.5 32t84.5 10q107 0 166 -47.5z
M331.5 54.5q45.5 24.5 73 68t29.5 98.5q-42 21 -93 33.5t-98 12.5q-73 0 -117.5 -32t-44.5 -87q0 -53 42 -85.5t109 -32.5q54 0 99.5 24.5zM202.5 566q-28.5 27 -28.5 70t28.5 70t73.5 27t73.5 -27t28.5 -70t-28.5 -70t-73.5 -27t-73.5 27zM324.5 589.5q18.5 17.5 18.5 46.5
t-18.5 46.5t-48.5 17.5t-48.5 -17.5t-18.5 -46.5t18.5 -46.5t48.5 -17.5t48.5 17.5z" />
    <glyph glyph-name="atilde.ss01" horiz-adv-x="551" 
d="M416 452.5q59 -47.5 59 -139.5v-313h-40v109q-33 -59 -86 -88.5t-120 -29.5q-84 0 -137 43t-53 114q0 73 55.5 115t146.5 42q51 0 96.5 -10.5t95.5 -34.5v53q0 73 -47 110.5t-136 37.5q-38 0 -80.5 -10.5t-82.5 -28.5l-10 36q47 22 88.5 32t84.5 10q107 0 166 -47.5z
M331.5 54.5q45.5 24.5 73 68t29.5 98.5q-42 21 -93 33.5t-98 12.5q-73 0 -117.5 -32t-44.5 -87q0 -53 42 -85.5t109 -32.5q54 0 99.5 24.5zM308 619q-14 5 -37 18q-25 14 -35 18t-21 4q-25 0 -37 -35l-28 12q8 29 24.5 44t40.5 15q14 0 27 -5t42 -21q21 -11 31 -15t20 -4
q25 0 37 36l29 -11q-7 -30 -24 -45.5t-41 -15.5q-14 0 -28 5z" />
    <glyph glyph-name="ae.ss01" horiz-adv-x="934" 
d="M838.5 431q58.5 -72 53.5 -200h-416q7 -93 57.5 -146.5t132.5 -53.5q48 0 93.5 21.5t70.5 57.5l30 -25q-32 -44 -83 -69t-111 -25q-75 0 -130.5 40.5t-80.5 111.5q-23 -69 -84.5 -110.5t-141.5 -41.5q-85 0 -137.5 43.5t-52.5 113.5q0 71 55 114t147 43q50 0 95.5 -10
t96.5 -33v51q0 73 -46.5 110.5t-136.5 37.5q-38 0 -80.5 -10t-82.5 -29l-10 36q46 22 87.5 32t86.5 10q86 0 140.5 -32.5t71.5 -93.5q28 62 81.5 95.5t126.5 33.5q109 0 167.5 -72zM535.5 411q-52.5 -53 -59.5 -142h376q-2 92 -50 143.5t-132 51.5q-82 0 -134.5 -53z
M333.5 54.5q45.5 24.5 72 67.5t28.5 97q-42 23 -92.5 35.5t-98.5 12.5q-74 0 -118 -32t-44 -87q0 -53 41.5 -85.5t109.5 -32.5q56 0 101.5 24.5z" />
    <glyph glyph-name="aeacute.ss01" horiz-adv-x="934" 
d="M838.5 431q58.5 -72 53.5 -200h-416q7 -93 57.5 -146.5t132.5 -53.5q48 0 93.5 21.5t70.5 57.5l30 -25q-32 -44 -83 -69t-111 -25q-75 0 -130.5 40.5t-80.5 111.5q-23 -69 -84.5 -110.5t-141.5 -41.5q-85 0 -137.5 43.5t-52.5 113.5q0 71 55 114t147 43q50 0 95.5 -10
t96.5 -33v51q0 73 -46.5 110.5t-136.5 37.5q-38 0 -80.5 -10t-82.5 -29l-10 36q46 22 87.5 32t86.5 10q86 0 140.5 -32.5t71.5 -93.5q28 62 81.5 95.5t126.5 33.5q109 0 167.5 -72zM535.5 411q-52.5 -53 -59.5 -142h376q-2 92 -50 143.5t-132 51.5q-82 0 -134.5 -53z
M333.5 54.5q45.5 24.5 72 67.5t28.5 97q-42 23 -92.5 35.5t-98.5 12.5q-74 0 -118 -32t-44 -87q0 -53 41.5 -85.5t109.5 -32.5q56 0 101.5 24.5zM508 700h50l-85 -121h-41z" />
    <glyph glyph-name="g.ss01" horiz-adv-x="632" 
d="M550 494v-507q0 -112 -69.5 -175.5t-189.5 -63.5q-49 0 -101.5 14t-100.5 46l21 34q90 -54 179 -54q103 0 161 52.5t58 144.5v123q-28 -54 -84.5 -85t-126.5 -31q-72 0 -128 32.5t-87.5 90.5t-31.5 132t31.5 132t87.5 90.5t128 32.5q70 0 126.5 -31.5t85.5 -85.5l1 109
h40zM408.5 58q47.5 27 73.5 76t26 113t-26 113t-73.5 76t-108.5 27q-62 0 -109 -27t-73 -76t-26 -113t26 -113t73 -76t109 -27q61 0 108.5 27z" />
    <glyph glyph-name="gbreve.ss01" horiz-adv-x="632" 
d="M550 494v-507q0 -112 -69.5 -175.5t-189.5 -63.5q-49 0 -101.5 14t-100.5 46l21 34q90 -54 179 -54q103 0 161 52.5t58 144.5v123q-28 -54 -84.5 -85t-126.5 -31q-72 0 -128 32.5t-87.5 90.5t-31.5 132t31.5 132t87.5 90.5t128 32.5q70 0 126.5 -31.5t85.5 -85.5l1 109
h40zM408.5 58q47.5 27 73.5 76t26 113t-26 113t-73.5 76t-108.5 27q-62 0 -109 -27t-73 -76t-26 -113t26 -113t73 -76t109 -27q61 0 108.5 27zM211 623q-34 30 -34 77h35q0 -32 24 -52.5t62 -20.5t61.5 20.5t23.5 52.5h36q0 -46 -34 -76.5t-87 -30.5t-87 30z" />
    <glyph glyph-name="gcircumflex.ss01" horiz-adv-x="632" 
d="M550 494v-507q0 -112 -69.5 -175.5t-189.5 -63.5q-49 0 -101.5 14t-100.5 46l21 34q90 -54 179 -54q103 0 161 52.5t58 144.5v123q-28 -54 -84.5 -85t-126.5 -31q-72 0 -128 32.5t-87.5 90.5t-31.5 132t31.5 132t87.5 90.5t128 32.5q70 0 126.5 -31.5t85.5 -85.5l1 109
h40zM408.5 58q47.5 27 73.5 76t26 113t-26 113t-73.5 76t-108.5 27q-62 0 -109 -27t-73 -76t-26 -113t26 -113t73 -76t109 -27q61 0 108.5 27zM442 579h-48l-96 88l-97 -88h-48l126 121h37z" />
    <glyph glyph-name="uni0123.ss01" horiz-adv-x="632" 
d="M550 494v-507q0 -112 -69.5 -175.5t-189.5 -63.5q-49 0 -101.5 14t-100.5 46l21 34q90 -54 179 -54q103 0 161 52.5t58 144.5v123q-28 -54 -84.5 -85t-126.5 -31q-72 0 -128 32.5t-87.5 90.5t-31.5 132t31.5 132t87.5 90.5t128 32.5q70 0 126.5 -31.5t85.5 -85.5l1 109
h40zM408.5 58q47.5 27 73.5 76t26 113t-26 113t-73.5 76t-108.5 27q-62 0 -109 -27t-73 -76t-26 -113t26 -113t73 -76t109 -27q61 0 108.5 27zM317 623q7 -9 7 -21q0 -14 -10 -24t-24 -10q-15 0 -24.5 10t-9.5 25t8.5 44t31.5 92h34l-31 -105q11 -2 18 -11z" />
    <glyph glyph-name="gdotaccent.ss01" horiz-adv-x="632" 
d="M550 494v-507q0 -112 -69.5 -175.5t-189.5 -63.5q-49 0 -101.5 14t-100.5 46l21 34q90 -54 179 -54q103 0 161 52.5t58 144.5v123q-28 -54 -84.5 -85t-126.5 -31q-72 0 -128 32.5t-87.5 90.5t-31.5 132t31.5 132t87.5 90.5t128 32.5q70 0 126.5 -31.5t85.5 -85.5l1 109
h40zM408.5 58q47.5 27 73.5 76t26 113t-26 113t-73.5 76t-108.5 27q-62 0 -109 -27t-73 -76t-26 -113t26 -113t73 -76t109 -27q61 0 108.5 27zM271.5 621q-10.5 10 -10.5 26t11 26.5t27 10.5t26.5 -10.5t10.5 -26.5t-10.5 -26t-26.5 -10q-17 0 -27.5 10z" />
    <glyph glyph-name="y.ss01" 
d="M513 494v-520q0 -107 -58 -166.5t-162 -59.5q-51 0 -104 15t-95 45l21 34q37 -25 83 -39.5t94 -14.5q85 0 132 48.5t47 138.5v123q-29 -49 -78 -76.5t-111 -27.5q-97 0 -151.5 57t-54.5 159v284h42v-283q0 -85 44 -131.5t124 -46.5q53 0 95.5 24.5t66 67t23.5 94.5v275
h42z" />
    <glyph glyph-name="yacute.ss01" 
d="M513 494v-520q0 -107 -58 -166.5t-162 -59.5q-51 0 -104 15t-95 45l21 34q37 -25 83 -39.5t94 -14.5q85 0 132 48.5t47 138.5v123q-29 -49 -78 -76.5t-111 -27.5q-97 0 -151.5 57t-54.5 159v284h42v-283q0 -85 44 -131.5t124 -46.5q53 0 95.5 24.5t66 67t23.5 94.5v275
h42zM335 700h50l-85 -121h-41z" />
    <glyph glyph-name="ycircumflex.ss01" 
d="M513 494v-520q0 -107 -58 -166.5t-162 -59.5q-51 0 -104 15t-95 45l21 34q37 -25 83 -39.5t94 -14.5q85 0 132 48.5t47 138.5v123q-29 -49 -78 -76.5t-111 -27.5q-97 0 -151.5 57t-54.5 159v284h42v-283q0 -85 44 -131.5t124 -46.5q53 0 95.5 24.5t66 67t23.5 94.5v275
h42zM438 579h-48l-96 88l-97 -88h-48l126 121h37z" />
    <glyph glyph-name="ydieresis.ss01" 
d="M513 494v-520q0 -107 -58 -166.5t-162 -59.5q-51 0 -104 15t-95 45l21 34q37 -25 83 -39.5t94 -14.5q85 0 132 48.5t47 138.5v123q-29 -49 -78 -76.5t-111 -27.5q-97 0 -151.5 57t-54.5 159v284h42v-283q0 -85 44 -131.5t124 -46.5q53 0 95.5 24.5t66 67t23.5 94.5v275
h42zM174.5 621.5q-10.5 10.5 -10.5 26.5t10.5 26t26.5 10t26.5 -10t10.5 -26t-10.5 -26.5t-26.5 -10.5t-26.5 10.5zM362.5 621.5q-10.5 10.5 -10.5 26.5t10.5 26t26.5 10t26 -10t10 -26t-10 -26.5t-26 -10.5t-26.5 10.5z" />
    <glyph glyph-name="ygrave.ss01" 
d="M513 494v-520q0 -107 -58 -166.5t-162 -59.5q-51 0 -104 15t-95 45l21 34q37 -25 83 -39.5t94 -14.5q85 0 132 48.5t47 138.5v123q-29 -49 -78 -76.5t-111 -27.5q-97 0 -151.5 57t-54.5 159v284h42v-283q0 -85 44 -131.5t124 -46.5q53 0 95.5 24.5t66 67t23.5 94.5v275
h42zM289 579l-85 121h50l76 -121h-41z" />
    <glyph glyph-name="f.ss02" horiz-adv-x="352" 
d="M372 662h-195v-168h165v-39h-165v-455h-42v455h-101v39h101v208h237v-40z" />
    <glyph glyph-name="g.ss02" horiz-adv-x="632" 
d="M550 494v-734h-446v39h404v309q-28 -54 -84.5 -85t-126.5 -31q-72 0 -128 32.5t-87.5 90.5t-31.5 132t31.5 132t87.5 90.5t128 32.5q70 0 127 -32t85 -86l1 110h40zM408.5 58q47.5 27 73.5 76t26 113t-26 113t-73.5 76t-108.5 27q-62 0 -109 -27t-73 -76t-26 -113
t26 -113t73 -76t109 -27q61 0 108.5 27z" />
    <glyph glyph-name="gbreve.ss02" horiz-adv-x="632" 
d="M550 494v-734h-446v39h404v309q-28 -54 -84.5 -85t-126.5 -31q-72 0 -128 32.5t-87.5 90.5t-31.5 132t31.5 132t87.5 90.5t128 32.5q70 0 127 -32t85 -86l1 110h40zM408.5 58q47.5 27 73.5 76t26 113t-26 113t-73.5 76t-108.5 27q-62 0 -109 -27t-73 -76t-26 -113
t26 -113t73 -76t109 -27q61 0 108.5 27zM211 623q-34 30 -34 77h35q0 -32 24 -52.5t62 -20.5t61.5 20.5t23.5 52.5h36q0 -46 -34 -76.5t-87 -30.5t-87 30z" />
    <glyph glyph-name="gcircumflex.ss02" horiz-adv-x="632" 
d="M550 494v-734h-446v39h404v309q-28 -54 -84.5 -85t-126.5 -31q-72 0 -128 32.5t-87.5 90.5t-31.5 132t31.5 132t87.5 90.5t128 32.5q70 0 127 -32t85 -86l1 110h40zM408.5 58q47.5 27 73.5 76t26 113t-26 113t-73.5 76t-108.5 27q-62 0 -109 -27t-73 -76t-26 -113
t26 -113t73 -76t109 -27q61 0 108.5 27zM442 579h-48l-96 88l-97 -88h-48l126 121h37z" />
    <glyph glyph-name="uni0123.ss02" horiz-adv-x="632" 
d="M550 494v-734h-446v39h404v309q-28 -54 -84.5 -85t-126.5 -31q-72 0 -128 32.5t-87.5 90.5t-31.5 132t31.5 132t87.5 90.5t128 32.5q70 0 127 -32t85 -86l1 110h40zM408.5 58q47.5 27 73.5 76t26 113t-26 113t-73.5 76t-108.5 27q-62 0 -109 -27t-73 -76t-26 -113
t26 -113t73 -76t109 -27q61 0 108.5 27zM317 623q7 -9 7 -21q0 -14 -10 -24t-24 -10q-15 0 -24.5 10t-9.5 25t8.5 44t31.5 92h34l-31 -105q11 -2 18 -11z" />
    <glyph glyph-name="gdotaccent.ss02" horiz-adv-x="632" 
d="M550 494v-734h-446v39h404v309q-28 -54 -84.5 -85t-126.5 -31q-72 0 -128 32.5t-87.5 90.5t-31.5 132t31.5 132t87.5 90.5t128 32.5q70 0 127 -32t85 -86l1 110h40zM408.5 58q47.5 27 73.5 76t26 113t-26 113t-73.5 76t-108.5 27q-62 0 -109 -27t-73 -76t-26 -113
t26 -113t73 -76t109 -27q61 0 108.5 27zM271.5 621q-10.5 10 -10.5 26t11 26.5t27 10.5t26.5 -10.5t10.5 -26.5t-10.5 -26t-26.5 -10q-17 0 -27.5 10z" />
    <glyph glyph-name="ij.ss02" horiz-adv-x="414" 
d="M76.5 621.5q-10.5 10.5 -10.5 26.5t10.5 27t27.5 11q16 0 27 -11t11 -27t-11 -26.5t-27 -10.5q-17 0 -27.5 10.5zM83 494h42v-494h-42v494zM283.5 621.5q-10.5 10.5 -10.5 26.5t10.5 27t27.5 11q16 0 27 -11t11 -27t-11 -26.5t-27 -10.5q-17 0 -27.5 10.5zM119 -201h171
v695h42v-734h-213v39z" />
    <glyph glyph-name="j.ss02" horiz-adv-x="207" 
d="M76.5 621.5q-10.5 10.5 -10.5 26.5t10.5 27t27.5 11q16 0 27 -11t11 -27t-11 -26.5t-27 -10.5q-17 0 -27.5 10.5zM-88 -201h171v695h42v-734h-213v39z" />
    <glyph glyph-name="uni0237.ss02" horiz-adv-x="206" 
d="M-89 -201h171v695h42v-734h-213v39z" />
    <glyph glyph-name="uni006A0301.ss02" horiz-adv-x="206" 
d="M-89 -201h171v695h42v-734h-213v39zM134 700h50l-69 -121h-41z" />
    <glyph glyph-name="jcircumflex.ss02" horiz-adv-x="206" 
d="M-89 -201h171v695h42v-734h-213v39zM229 579h-46l-80 88l-79 -88h-46l107 121h37z" />
    <glyph glyph-name="l.ss02" horiz-adv-x="235" 
d="M125 39h98v-39h-140v700h42v-661z" />
    <glyph glyph-name="lacute.ss02" horiz-adv-x="235" 
d="M125 39h98v-39h-140v700h42v-661zM143 906h50l-85 -121h-41z" />
    <glyph glyph-name="lcaron.ss02" horiz-adv-x="224" 
d="M125 700v-661h98v-39h-140v700h42zM254 700l-48 -146h-32l38 146h42z" />
    <glyph glyph-name="uni013C.ss02" horiz-adv-x="235" 
d="M125 39h98v-39h-140v700h42v-661zM177.5 -87.5q9.5 -8.5 9.5 -22.5q0 -10 -6.5 -28t-33.5 -76h-33l28 77q-20 6 -20 27q0 14 10 22.5t23 8.5t22.5 -8.5z" />
    <glyph glyph-name="ldot.ss02" horiz-adv-x="291" 
d="M125 39h98v-39h-140v700h42v-661zM221 292.5q-10 9.5 -10 23.5q0 15 10 24.5t24 9.5q15 0 24.5 -9.5t9.5 -24.5q0 -14 -9.5 -23.5t-24.5 -9.5q-14 0 -24 9.5z" />
    <glyph glyph-name="lslash.ss02" horiz-adv-x="259" 
d="M145 39h99v-39h-141v327l-77 -30v39l77 30v334h42v-317l78 31v-39l-78 -31v-305z" />
    <glyph glyph-name="r.ss02" horiz-adv-x="386" 
d="M83 494h291v-39h-249v-455h-42v494z" />
    <glyph glyph-name="racute.ss02" horiz-adv-x="386" 
d="M83 494h291v-39h-249v-455h-42v494zM259 700h50l-85 -121h-41z" />
    <glyph glyph-name="rcaron.ss02" horiz-adv-x="386" 
d="M83 494h291v-39h-249v-455h-42v494zM315 700h48l-126 -121h-37l-126 121h48l97 -89z" />
    <glyph glyph-name="uni0157.ss02" horiz-adv-x="386" 
d="M83 494h291v-39h-249v-455h-42v494zM129.5 -87.5q9.5 -8.5 9.5 -22.5q0 -10 -6.5 -28t-33.5 -76h-33l28 77q-20 6 -20 27q0 14 10 22.5t23 8.5t22.5 -8.5z" />
    <glyph glyph-name="t.ss02" horiz-adv-x="347" 
d="M335 494v-39h-151v-455h-42v455h-106v39h106v136h42v-136h151z" />
    <glyph glyph-name="tbar.ss02" horiz-adv-x="347" 
d="M335 455h-151v-166h123v-37h-123v-252h-42v252h-81v37h81v166h-106v39h106v136h42v-136h151v-39z" />
    <glyph glyph-name="tcaron.ss02" horiz-adv-x="394" 
d="M384 651h44l-50 -153h-35zM184 630v-136h134v-39h-134v-455h-42v455h-106v39h106v136h42z" />
    <glyph glyph-name="uni0163.ss02" horiz-adv-x="347" 
d="M184 494h151v-39h-151v-455h-42v455h-106v39h106v136h42v-136zM234.5 -70.5q21.5 -20.5 21.5 -52.5q0 -38 -27 -62t-71 -24h-49l4 33h46q28 0 45 14.5t17 37.5q0 19 -12.5 30.5t-32.5 11.5h-38l4 32h36q35 0 56.5 -20.5z" />
    <glyph glyph-name="uni021B.ss02" horiz-adv-x="347" 
d="M335 494v-39h-151v-455h-42v455h-106v39h106v136h42v-136h151zM188.5 -87.5q9.5 -8.5 9.5 -22.5q0 -10 -6.5 -28t-33.5 -76h-33l28 77q-20 6 -20 27q0 14 10 22.5t23 8.5t22.5 -8.5z" />
    <glyph glyph-name="u.ss02" horiz-adv-x="589" 
d="M132.5 49q-56.5 56 -56.5 160v285h42v-284q0 -86 45.5 -131.5t131.5 -45.5t131 45.5t45 131.5v284h42v-285q0 -104 -56.5 -160t-161.5 -56q-106 0 -162.5 56z" />
    <glyph glyph-name="uacute.ss02" horiz-adv-x="589" 
d="M132.5 49q-56.5 56 -56.5 160v285h42v-284q0 -86 45.5 -131.5t131.5 -45.5t131 45.5t45 131.5v284h42v-285q0 -104 -56.5 -160t-161.5 -56q-106 0 -162.5 56zM327 700h50l-85 -121h-41z" />
    <glyph glyph-name="ubreve.ss02" horiz-adv-x="589" 
d="M132.5 49q-56.5 56 -56.5 160v285h42v-284q0 -86 45.5 -131.5t131.5 -45.5t131 45.5t45 131.5v284h42v-285q0 -104 -56.5 -160t-161.5 -56q-106 0 -162.5 56zM200 623q-34 30 -34 77h35q0 -32 24 -52.5t62 -20.5t61.5 20.5t23.5 52.5h36q0 -46 -34 -76.5t-87 -30.5
t-87 30z" />
    <glyph glyph-name="ucircumflex.ss02" horiz-adv-x="589" 
d="M132.5 49q-56.5 56 -56.5 160v285h42v-284q0 -86 45.5 -131.5t131.5 -45.5t131 45.5t45 131.5v284h42v-285q0 -104 -56.5 -160t-161.5 -56q-106 0 -162.5 56zM430 579h-48l-96 88l-97 -88h-48l126 121h37z" />
    <glyph glyph-name="udieresis.ss02" horiz-adv-x="589" 
d="M132.5 49q-56.5 56 -56.5 160v285h42v-284q0 -86 45.5 -131.5t131.5 -45.5t131 45.5t45 131.5v284h42v-285q0 -104 -56.5 -160t-161.5 -56q-106 0 -162.5 56zM165.5 621.5q-10.5 10.5 -10.5 26.5t10.5 26t26.5 10t26.5 -10t10.5 -26t-10.5 -26.5t-26.5 -10.5t-26.5 10.5z
M353.5 621.5q-10.5 10.5 -10.5 26.5t10.5 26t26.5 10t26 -10t10 -26t-10 -26.5t-26 -10.5t-26.5 10.5z" />
    <glyph glyph-name="ugrave.ss02" horiz-adv-x="589" 
d="M132.5 49q-56.5 56 -56.5 160v285h42v-284q0 -86 45.5 -131.5t131.5 -45.5t131 45.5t45 131.5v284h42v-285q0 -104 -56.5 -160t-161.5 -56q-106 0 -162.5 56zM281 579l-85 121h50l76 -121h-41z" />
    <glyph glyph-name="uhungarumlaut.ss02" horiz-adv-x="589" 
d="M132.5 49q-56.5 56 -56.5 160v285h42v-284q0 -86 45.5 -131.5t131.5 -45.5t131 45.5t45 131.5v284h42v-285q0 -104 -56.5 -160t-161.5 -56q-106 0 -162.5 56zM262 700h50l-77 -121h-40zM393 700h49l-78 -121h-40z" />
    <glyph glyph-name="umacron.ss02" horiz-adv-x="589" 
d="M132.5 49q-56.5 56 -56.5 160v285h42v-284q0 -86 45.5 -131.5t131.5 -45.5t131 45.5t45 131.5v284h42v-285q0 -104 -56.5 -160t-161.5 -56q-106 0 -162.5 56zM157 642h259v-35h-259v35z" />
    <glyph glyph-name="uogonek.ss02" horiz-adv-x="589" 
d="M513 494v-285q0 -87 -40 -141t-116 -69q-50 -20 -73.5 -43t-23.5 -52q0 -24 16 -37.5t46 -13.5q47 0 86 34l22 -28q-49 -43 -113 -43q-44 0 -70 22.5t-26 61.5q0 54 56 93q-97 5 -149 61t-52 155v285h42v-284q0 -86 45.5 -131.5t131.5 -45.5t131 45.5t45 131.5v284h42z
" />
    <glyph glyph-name="uring.ss02" horiz-adv-x="589" 
d="M132.5 49q-56.5 56 -56.5 160v285h42v-284q0 -86 45.5 -131.5t131.5 -45.5t131 45.5t45 131.5v284h42v-285q0 -104 -56.5 -160t-161.5 -56q-106 0 -162.5 56zM212.5 566q-28.5 27 -28.5 70t28.5 70t73.5 27t73.5 -27t28.5 -70t-28.5 -70t-73.5 -27t-73.5 27zM334.5 589.5
q18.5 17.5 18.5 46.5t-18.5 46.5t-48.5 17.5t-48.5 -17.5t-18.5 -46.5t18.5 -46.5t48.5 -17.5t48.5 17.5z" />
    <glyph glyph-name="utilde.ss02" horiz-adv-x="589" 
d="M132.5 49q-56.5 56 -56.5 160v285h42v-284q0 -86 45.5 -131.5t131.5 -45.5t131 45.5t45 131.5v284h42v-285q0 -104 -56.5 -160t-161.5 -56q-106 0 -162.5 56zM318 619q-14 5 -37 18q-25 14 -35 18t-21 4q-25 0 -37 -35l-28 12q8 29 24.5 44t40.5 15q14 0 27 -5t42 -21
q21 -11 31 -15t20 -4q25 0 37 36l29 -11q-7 -30 -24 -45.5t-41 -15.5q-14 0 -28 5z" />
    <glyph glyph-name="y.ss02" 
d="M513 494v-734h-398v39h356v298q-28 -48 -77.5 -75.5t-111.5 -27.5q-97 0 -151.5 57t-54.5 159v284h42v-283q0 -85 44 -131.5t124 -46.5q53 0 95.5 24.5t66 67t23.5 94.5v275h42z" />
    <glyph glyph-name="yacute.ss02" 
d="M513 494v-734h-398v39h356v298q-28 -48 -77.5 -75.5t-111.5 -27.5q-97 0 -151.5 57t-54.5 159v284h42v-283q0 -85 44 -131.5t124 -46.5q53 0 95.5 24.5t66 67t23.5 94.5v275h42zM341 700h50l-85 -121h-41z" />
    <glyph glyph-name="ycircumflex.ss02" 
d="M513 494v-734h-398v39h356v298q-28 -48 -77.5 -75.5t-111.5 -27.5q-97 0 -151.5 57t-54.5 159v284h42v-283q0 -85 44 -131.5t124 -46.5q53 0 95.5 24.5t66 67t23.5 94.5v275h42zM444 579h-48l-96 88l-97 -88h-48l126 121h37z" />
    <glyph glyph-name="ydieresis.ss02" 
d="M513 494v-734h-398v39h356v298q-28 -48 -77.5 -75.5t-111.5 -27.5q-97 0 -151.5 57t-54.5 159v284h42v-283q0 -85 44 -131.5t124 -46.5q53 0 95.5 24.5t66 67t23.5 94.5v275h42zM180.5 621.5q-10.5 10.5 -10.5 26.5t10.5 26t26.5 10t26.5 -10t10.5 -26t-10.5 -26.5
t-26.5 -10.5t-26.5 10.5zM368.5 621.5q-10.5 10.5 -10.5 26.5t10.5 26t26.5 10t26 -10t10 -26t-10 -26.5t-26 -10.5t-26.5 10.5z" />
    <glyph glyph-name="ygrave.ss02" 
d="M513 494v-734h-398v39h356v298q-28 -48 -77.5 -75.5t-111.5 -27.5q-97 0 -151.5 57t-54.5 159v284h42v-283q0 -85 44 -131.5t124 -46.5q53 0 95.5 24.5t66 67t23.5 94.5v275h42zM295 579l-85 121h50l76 -121h-41z" />
    <glyph glyph-name="a.ss04" horiz-adv-x="551" 
d="M416 452.5q59 -47.5 59 -139.5v-313h-40v109q-33 -59 -86 -88.5t-120 -29.5q-84 0 -137 43t-53 114q0 73 55.5 115t146.5 42q51 0 96.5 -10.5t95.5 -34.5v53q0 73 -47 110.5t-136 37.5q-38 0 -80.5 -10.5t-82.5 -28.5l-10 36q47 22 88.5 32t84.5 10q107 0 166 -47.5z
M331.5 54.5q45.5 24.5 73 68t29.5 98.5q-42 21 -93 33.5t-98 12.5q-73 0 -117.5 -32t-44.5 -87q0 -53 42 -85.5t109 -32.5q54 0 99.5 24.5z" />
    <glyph glyph-name="aacute.ss04" horiz-adv-x="551" 
d="M416 452.5q59 -47.5 59 -139.5v-313h-40v109q-33 -59 -86 -88.5t-120 -29.5q-84 0 -137 43t-53 114q0 73 55.5 115t146.5 42q51 0 96.5 -10.5t95.5 -34.5v53q0 73 -47 110.5t-136 37.5q-38 0 -80.5 -10.5t-82.5 -28.5l-10 36q47 22 88.5 32t84.5 10q107 0 166 -47.5z
M331.5 54.5q45.5 24.5 73 68t29.5 98.5q-42 21 -93 33.5t-98 12.5q-73 0 -117.5 -32t-44.5 -87q0 -53 42 -85.5t109 -32.5q54 0 99.5 24.5zM317 700h50l-85 -121h-41z" />
    <glyph glyph-name="abreve.ss04" horiz-adv-x="551" 
d="M416 452.5q59 -47.5 59 -139.5v-313h-40v109q-33 -59 -86 -88.5t-120 -29.5q-84 0 -137 43t-53 114q0 73 55.5 115t146.5 42q51 0 96.5 -10.5t95.5 -34.5v53q0 73 -47 110.5t-136 37.5q-38 0 -80.5 -10.5t-82.5 -28.5l-10 36q47 22 88.5 32t84.5 10q107 0 166 -47.5z
M331.5 54.5q45.5 24.5 73 68t29.5 98.5q-42 21 -93 33.5t-98 12.5q-73 0 -117.5 -32t-44.5 -87q0 -53 42 -85.5t109 -32.5q54 0 99.5 24.5zM190 623q-34 30 -34 77h35q0 -32 24 -52.5t62 -20.5t61.5 20.5t23.5 52.5h36q0 -46 -34 -76.5t-87 -30.5t-87 30z" />
    <glyph glyph-name="acircumflex.ss04" horiz-adv-x="551" 
d="M416 452.5q59 -47.5 59 -139.5v-313h-40v109q-33 -59 -86 -88.5t-120 -29.5q-84 0 -137 43t-53 114q0 73 55.5 115t146.5 42q51 0 96.5 -10.5t95.5 -34.5v53q0 73 -47 110.5t-136 37.5q-38 0 -80.5 -10.5t-82.5 -28.5l-10 36q47 22 88.5 32t84.5 10q107 0 166 -47.5z
M331.5 54.5q45.5 24.5 73 68t29.5 98.5q-42 21 -93 33.5t-98 12.5q-73 0 -117.5 -32t-44.5 -87q0 -53 42 -85.5t109 -32.5q54 0 99.5 24.5zM420 579h-48l-96 88l-97 -88h-48l126 121h37z" />
    <glyph glyph-name="adieresis.ss04" horiz-adv-x="551" 
d="M416 452.5q59 -47.5 59 -139.5v-313h-40v109q-33 -59 -86 -88.5t-120 -29.5q-84 0 -137 43t-53 114q0 73 55.5 115t146.5 42q51 0 96.5 -10.5t95.5 -34.5v53q0 73 -47 110.5t-136 37.5q-38 0 -80.5 -10.5t-82.5 -28.5l-10 36q47 22 88.5 32t84.5 10q107 0 166 -47.5z
M331.5 54.5q45.5 24.5 73 68t29.5 98.5q-42 21 -93 33.5t-98 12.5q-73 0 -117.5 -32t-44.5 -87q0 -53 42 -85.5t109 -32.5q54 0 99.5 24.5zM156.5 621.5q-10.5 10.5 -10.5 26.5t10.5 26t26.5 10t26.5 -10t10.5 -26t-10.5 -26.5t-26.5 -10.5t-26.5 10.5zM344.5 621.5
q-10.5 10.5 -10.5 26.5t10.5 26t26.5 10t26 -10t10 -26t-10 -26.5t-26 -10.5t-26.5 10.5z" />
    <glyph glyph-name="agrave.ss04" horiz-adv-x="551" 
d="M416 452.5q59 -47.5 59 -139.5v-313h-40v109q-33 -59 -86 -88.5t-120 -29.5q-84 0 -137 43t-53 114q0 73 55.5 115t146.5 42q51 0 96.5 -10.5t95.5 -34.5v53q0 73 -47 110.5t-136 37.5q-38 0 -80.5 -10.5t-82.5 -28.5l-10 36q47 22 88.5 32t84.5 10q107 0 166 -47.5z
M331.5 54.5q45.5 24.5 73 68t29.5 98.5q-42 21 -93 33.5t-98 12.5q-73 0 -117.5 -32t-44.5 -87q0 -53 42 -85.5t109 -32.5q54 0 99.5 24.5zM271 579l-85 121h50l76 -121h-41z" />
    <glyph glyph-name="amacron.ss04" horiz-adv-x="551" 
d="M416 452.5q59 -47.5 59 -139.5v-313h-40v109q-33 -59 -86 -88.5t-120 -29.5q-84 0 -137 43t-53 114q0 73 55.5 115t146.5 42q51 0 96.5 -10.5t95.5 -34.5v53q0 73 -47 110.5t-136 37.5q-38 0 -80.5 -10.5t-82.5 -28.5l-10 36q47 22 88.5 32t84.5 10q107 0 166 -47.5z
M331.5 54.5q45.5 24.5 73 68t29.5 98.5q-42 21 -93 33.5t-98 12.5q-73 0 -117.5 -32t-44.5 -87q0 -53 42 -85.5t109 -32.5q54 0 99.5 24.5zM147 642h259v-35h-259v35z" />
    <glyph glyph-name="aogonek.ss04" horiz-adv-x="551" 
d="M545 -141q-49 -43 -113 -43q-44 0 -70 22.5t-26 61.5q0 71 99 118v91q-33 -59 -86 -88.5t-120 -29.5q-84 0 -137 43t-53 114q0 73 55.5 115t146.5 42q51 0 96.5 -10.5t95.5 -34.5v53q0 73 -47 110.5t-136 37.5q-38 0 -80.5 -10.5t-82.5 -28.5l-10 36q47 22 88.5 32
t84.5 10q107 0 166 -47.5t59 -139.5v-313q-52 -20 -76 -43.5t-24 -52.5q0 -24 16 -37.5t46 -13.5q47 0 86 34zM331.5 54.5q45.5 24.5 73 68t29.5 98.5q-42 21 -93 33.5t-98 12.5q-73 0 -117.5 -32t-44.5 -87q0 -53 42 -85.5t109 -32.5q54 0 99.5 24.5z" />
    <glyph glyph-name="aring.ss04" horiz-adv-x="551" 
d="M416 452.5q59 -47.5 59 -139.5v-313h-40v109q-33 -59 -86 -88.5t-120 -29.5q-84 0 -137 43t-53 114q0 73 55.5 115t146.5 42q51 0 96.5 -10.5t95.5 -34.5v53q0 73 -47 110.5t-136 37.5q-38 0 -80.5 -10.5t-82.5 -28.5l-10 36q47 22 88.5 32t84.5 10q107 0 166 -47.5z
M331.5 54.5q45.5 24.5 73 68t29.5 98.5q-42 21 -93 33.5t-98 12.5q-73 0 -117.5 -32t-44.5 -87q0 -53 42 -85.5t109 -32.5q54 0 99.5 24.5zM202.5 566q-28.5 27 -28.5 70t28.5 70t73.5 27t73.5 -27t28.5 -70t-28.5 -70t-73.5 -27t-73.5 27zM324.5 589.5q18.5 17.5 18.5 46.5
t-18.5 46.5t-48.5 17.5t-48.5 -17.5t-18.5 -46.5t18.5 -46.5t48.5 -17.5t48.5 17.5z" />
    <glyph glyph-name="atilde.ss04" horiz-adv-x="551" 
d="M416 452.5q59 -47.5 59 -139.5v-313h-40v109q-33 -59 -86 -88.5t-120 -29.5q-84 0 -137 43t-53 114q0 73 55.5 115t146.5 42q51 0 96.5 -10.5t95.5 -34.5v53q0 73 -47 110.5t-136 37.5q-38 0 -80.5 -10.5t-82.5 -28.5l-10 36q47 22 88.5 32t84.5 10q107 0 166 -47.5z
M331.5 54.5q45.5 24.5 73 68t29.5 98.5q-42 21 -93 33.5t-98 12.5q-73 0 -117.5 -32t-44.5 -87q0 -53 42 -85.5t109 -32.5q54 0 99.5 24.5zM308 619q-14 5 -37 18q-25 14 -35 18t-21 4q-25 0 -37 -35l-28 12q8 29 24.5 44t40.5 15q14 0 27 -5t42 -21q21 -11 31 -15t20 -4
q25 0 37 36l29 -11q-7 -30 -24 -45.5t-41 -15.5q-14 0 -28 5z" />
    <glyph glyph-name="ae.ss04" horiz-adv-x="934" 
d="M838.5 431q58.5 -72 53.5 -200h-416q7 -93 57.5 -146.5t132.5 -53.5q48 0 93.5 21.5t70.5 57.5l30 -25q-32 -44 -83 -69t-111 -25q-75 0 -130.5 40.5t-80.5 111.5q-23 -69 -84.5 -110.5t-141.5 -41.5q-85 0 -137.5 43.5t-52.5 113.5q0 71 55 114t147 43q50 0 95.5 -10
t96.5 -33v51q0 73 -46.5 110.5t-136.5 37.5q-38 0 -80.5 -10t-82.5 -29l-10 36q46 22 87.5 32t86.5 10q86 0 140.5 -32.5t71.5 -93.5q28 62 81.5 95.5t126.5 33.5q109 0 167.5 -72zM535.5 411q-52.5 -53 -59.5 -142h376q-2 92 -50 143.5t-132 51.5q-82 0 -134.5 -53z
M333.5 54.5q45.5 24.5 72 67.5t28.5 97q-42 23 -92.5 35.5t-98.5 12.5q-74 0 -118 -32t-44 -87q0 -53 41.5 -85.5t109.5 -32.5q56 0 101.5 24.5z" />
    <glyph glyph-name="aeacute.ss04" horiz-adv-x="934" 
d="M838.5 431q58.5 -72 53.5 -200h-416q7 -93 57.5 -146.5t132.5 -53.5q48 0 93.5 21.5t70.5 57.5l30 -25q-32 -44 -83 -69t-111 -25q-75 0 -130.5 40.5t-80.5 111.5q-23 -69 -84.5 -110.5t-141.5 -41.5q-85 0 -137.5 43.5t-52.5 113.5q0 71 55 114t147 43q50 0 95.5 -10
t96.5 -33v51q0 73 -46.5 110.5t-136.5 37.5q-38 0 -80.5 -10t-82.5 -29l-10 36q46 22 87.5 32t86.5 10q86 0 140.5 -32.5t71.5 -93.5q28 62 81.5 95.5t126.5 33.5q109 0 167.5 -72zM535.5 411q-52.5 -53 -59.5 -142h376q-2 92 -50 143.5t-132 51.5q-82 0 -134.5 -53z
M333.5 54.5q45.5 24.5 72 67.5t28.5 97q-42 23 -92.5 35.5t-98.5 12.5q-74 0 -118 -32t-44 -87q0 -53 41.5 -85.5t109.5 -32.5q56 0 101.5 24.5zM508 700h50l-85 -121h-41z" />
    <glyph glyph-name="g.ss04" horiz-adv-x="632" 
d="M550 494v-507q0 -112 -69.5 -175.5t-189.5 -63.5q-49 0 -101.5 14t-100.5 46l21 34q90 -54 179 -54q103 0 161 52.5t58 144.5v123q-28 -54 -84.5 -85t-126.5 -31q-72 0 -128 32.5t-87.5 90.5t-31.5 132t31.5 132t87.5 90.5t128 32.5q70 0 126.5 -31.5t85.5 -85.5l1 109
h40zM408.5 58q47.5 27 73.5 76t26 113t-26 113t-73.5 76t-108.5 27q-62 0 -109 -27t-73 -76t-26 -113t26 -113t73 -76t109 -27q61 0 108.5 27z" />
    <glyph glyph-name="gbreve.ss04" horiz-adv-x="632" 
d="M550 494v-507q0 -112 -69.5 -175.5t-189.5 -63.5q-49 0 -101.5 14t-100.5 46l21 34q90 -54 179 -54q103 0 161 52.5t58 144.5v123q-28 -54 -84.5 -85t-126.5 -31q-72 0 -128 32.5t-87.5 90.5t-31.5 132t31.5 132t87.5 90.5t128 32.5q70 0 126.5 -31.5t85.5 -85.5l1 109
h40zM408.5 58q47.5 27 73.5 76t26 113t-26 113t-73.5 76t-108.5 27q-62 0 -109 -27t-73 -76t-26 -113t26 -113t73 -76t109 -27q61 0 108.5 27zM211 623q-34 30 -34 77h35q0 -32 24 -52.5t62 -20.5t61.5 20.5t23.5 52.5h36q0 -46 -34 -76.5t-87 -30.5t-87 30z" />
    <glyph glyph-name="gcircumflex.ss04" horiz-adv-x="632" 
d="M550 494v-507q0 -112 -69.5 -175.5t-189.5 -63.5q-49 0 -101.5 14t-100.5 46l21 34q90 -54 179 -54q103 0 161 52.5t58 144.5v123q-28 -54 -84.5 -85t-126.5 -31q-72 0 -128 32.5t-87.5 90.5t-31.5 132t31.5 132t87.5 90.5t128 32.5q70 0 126.5 -31.5t85.5 -85.5l1 109
h40zM408.5 58q47.5 27 73.5 76t26 113t-26 113t-73.5 76t-108.5 27q-62 0 -109 -27t-73 -76t-26 -113t26 -113t73 -76t109 -27q61 0 108.5 27zM442 579h-48l-96 88l-97 -88h-48l126 121h37z" />
    <glyph glyph-name="uni0123.ss04" horiz-adv-x="632" 
d="M550 494v-507q0 -112 -69.5 -175.5t-189.5 -63.5q-49 0 -101.5 14t-100.5 46l21 34q90 -54 179 -54q103 0 161 52.5t58 144.5v123q-28 -54 -84.5 -85t-126.5 -31q-72 0 -128 32.5t-87.5 90.5t-31.5 132t31.5 132t87.5 90.5t128 32.5q70 0 126.5 -31.5t85.5 -85.5l1 109
h40zM408.5 58q47.5 27 73.5 76t26 113t-26 113t-73.5 76t-108.5 27q-62 0 -109 -27t-73 -76t-26 -113t26 -113t73 -76t109 -27q61 0 108.5 27zM317 623q7 -9 7 -21q0 -14 -10 -24t-24 -10q-15 0 -24.5 10t-9.5 25t8.5 44t31.5 92h34l-31 -105q11 -2 18 -11z" />
    <glyph glyph-name="gdotaccent.ss04" horiz-adv-x="632" 
d="M550 494v-507q0 -112 -69.5 -175.5t-189.5 -63.5q-49 0 -101.5 14t-100.5 46l21 34q90 -54 179 -54q103 0 161 52.5t58 144.5v123q-28 -54 -84.5 -85t-126.5 -31q-72 0 -128 32.5t-87.5 90.5t-31.5 132t31.5 132t87.5 90.5t128 32.5q70 0 126.5 -31.5t85.5 -85.5l1 109
h40zM408.5 58q47.5 27 73.5 76t26 113t-26 113t-73.5 76t-108.5 27q-62 0 -109 -27t-73 -76t-26 -113t26 -113t73 -76t109 -27q61 0 108.5 27zM271.5 621q-10.5 10 -10.5 26t11 26.5t27 10.5t26.5 -10.5t10.5 -26.5t-10.5 -26t-26.5 -10q-17 0 -27.5 10z" />
    <glyph glyph-name="y.ss04" 
d="M513 494v-520q0 -107 -58 -166.5t-162 -59.5q-51 0 -104 15t-95 45l21 34q37 -25 83 -39.5t94 -14.5q85 0 132 48.5t47 138.5v123q-29 -49 -78 -76.5t-111 -27.5q-97 0 -151.5 57t-54.5 159v284h42v-283q0 -85 44 -131.5t124 -46.5q53 0 95.5 24.5t66 67t23.5 94.5v275
h42z" />
    <glyph glyph-name="yacute.ss04" 
d="M513 494v-520q0 -107 -58 -166.5t-162 -59.5q-51 0 -104 15t-95 45l21 34q37 -25 83 -39.5t94 -14.5q85 0 132 48.5t47 138.5v123q-29 -49 -78 -76.5t-111 -27.5q-97 0 -151.5 57t-54.5 159v284h42v-283q0 -85 44 -131.5t124 -46.5q53 0 95.5 24.5t66 67t23.5 94.5v275
h42zM335 700h50l-85 -121h-41z" />
    <glyph glyph-name="ycircumflex.ss04" 
d="M513 494v-520q0 -107 -58 -166.5t-162 -59.5q-51 0 -104 15t-95 45l21 34q37 -25 83 -39.5t94 -14.5q85 0 132 48.5t47 138.5v123q-29 -49 -78 -76.5t-111 -27.5q-97 0 -151.5 57t-54.5 159v284h42v-283q0 -85 44 -131.5t124 -46.5q53 0 95.5 24.5t66 67t23.5 94.5v275
h42zM438 579h-48l-96 88l-97 -88h-48l126 121h37z" />
    <glyph glyph-name="ydieresis.ss04" 
d="M513 494v-520q0 -107 -58 -166.5t-162 -59.5q-51 0 -104 15t-95 45l21 34q37 -25 83 -39.5t94 -14.5q85 0 132 48.5t47 138.5v123q-29 -49 -78 -76.5t-111 -27.5q-97 0 -151.5 57t-54.5 159v284h42v-283q0 -85 44 -131.5t124 -46.5q53 0 95.5 24.5t66 67t23.5 94.5v275
h42zM174.5 621.5q-10.5 10.5 -10.5 26.5t10.5 26t26.5 10t26.5 -10t10.5 -26t-10.5 -26.5t-26.5 -10.5t-26.5 10.5zM362.5 621.5q-10.5 10.5 -10.5 26.5t10.5 26t26.5 10t26 -10t10 -26t-10 -26.5t-26 -10.5t-26.5 10.5z" />
    <glyph glyph-name="ygrave.ss04" 
d="M513 494v-520q0 -107 -58 -166.5t-162 -59.5q-51 0 -104 15t-95 45l21 34q37 -25 83 -39.5t94 -14.5q85 0 132 48.5t47 138.5v123q-29 -49 -78 -76.5t-111 -27.5q-97 0 -151.5 57t-54.5 159v284h42v-283q0 -85 44 -131.5t124 -46.5q53 0 95.5 24.5t66 67t23.5 94.5v275
h42zM289 579l-85 121h50l76 -121h-41z" />
    <glyph glyph-name="f_f.ss02" horiz-adv-x="661" 
d="M680 682h-194v-188h165v-39h-165v-455h-42v455h-267v-455h-42v455h-101v39h101v188h227v-40h-185v-148h267v228h236v-40z" />
    <glyph glyph-name="fi.ss02" horiz-adv-x="577" 
d="M494 494v-494h-42v455h-275v-455h-42v455h-101v39h101v208h237v-40h-195v-168h317zM500.5 675q10.5 -11 10.5 -27t-10.5 -26.5t-27.5 -10.5q-16 0 -26.5 10.5t-10.5 26.5t10.5 27t26.5 11q17 0 27.5 -11z" />
    <glyph glyph-name="fl.ss02" horiz-adv-x="598" 
d="M488 39h99v-39h-141v662h-269v-168h165v-39h-165v-455h-42v455h-101v39h101v208h353v-663z" />
    <glyph glyph-name="uni0414.loclBGR" horiz-adv-x="824" 
d="M718 43h75v-202h-43v159h-675v-159h-44v202h75l280 657h52zM412 652l-259 -610h518z" />
    <glyph glyph-name="uni041B.loclBGR" horiz-adv-x="705" 
d="M379 700l298 -700h-48l-276 652l-96 -225l-181 -427h-48l299 700h52z" />
    <glyph glyph-name="uni0424.loclBGR" horiz-adv-x="918" 
d="M817 164q-46 -79 -132 -122.5t-204 -45.5v-93h-44v93q-118 2 -204 45.5t-132 122.5t-46 186t46 185.5t132 122t204 46.5v88h44v-88q118 -3 204 -46.5t132 -122t46 -185.5t-46 -186zM188 124q90 -82 250 -86v624q-160 -4 -250 -86.5t-90 -225.5q0 -144 90 -226zM730 124
q90 82 90 226q0 143 -90 225.5t-250 86.5v-624q160 4 250 86z" />
    <glyph glyph-name="uni0414.ss02" horiz-adv-x="796" 
d="M661 43h100v-202h-43v159h-657v-159h-43v202h102l90 657h451v-657zM248 657l-83 -615h453v615h-370z" />
    <glyph glyph-name="uni041B.ss02" horiz-adv-x="751" 
d="M201 700h449v-700h-44v657h-367l-71 -657h-136v41h97z" />
    <glyph glyph-name="uni0427.ss02" horiz-adv-x="676" 
d="M575 700v-700h-44v254h-209q-118 0 -183 69.5t-65 197.5v179h44v-176q0 -112 53 -169.5t155 -57.5h205v403h44z" />
    <glyph glyph-name="uni0409.ss02" horiz-adv-x="1175" 
d="M1049 387q64 -56 64 -158q0 -113 -64.5 -171t-180.5 -58h-279v657h-350l-71 -657h-136v41h97l72 659h432v-257h235q117 0 181 -56zM1017 89q52 46 52 140q0 84 -52.5 128t-146.5 44h-237v-358h237q95 0 147 46z" />
    <glyph glyph-name="uni0414.ss03" horiz-adv-x="824" 
d="M718 43h75v-202h-43v159h-675v-159h-44v202h75l280 657h52zM412 652l-259 -610h518z" />
    <glyph glyph-name="uni041B.ss03" horiz-adv-x="705" 
d="M379 700l298 -700h-48l-276 652l-96 -225l-181 -427h-48l299 700h52z" />
    <glyph glyph-name="uni0424.ss03" horiz-adv-x="918" 
d="M817 164q-46 -79 -132 -122.5t-204 -45.5v-93h-44v93q-118 2 -204 45.5t-132 122.5t-46 186t46 185.5t132 122t204 46.5v88h44v-88q118 -3 204 -46.5t132 -122t46 -185.5t-46 -186zM188 124q90 -82 250 -86v624q-160 -4 -250 -86.5t-90 -225.5q0 -144 90 -226zM730 124
q90 82 90 226q0 143 -90 225.5t-250 86.5v-624q160 4 250 86z" />
    <glyph glyph-name="uni0414.ss04" horiz-adv-x="824" 
d="M718 43h75v-202h-43v159h-675v-159h-44v202h75l280 657h52zM412 652l-259 -610h518z" />
    <glyph glyph-name="uni041B.ss04" horiz-adv-x="705" 
d="M379 700l298 -700h-48l-276 652l-96 -225l-181 -427h-48l299 700h52z" />
    <glyph glyph-name="uni0424.ss04" horiz-adv-x="918" 
d="M817 164q-46 -79 -132 -122.5t-204 -45.5v-93h-44v93q-118 2 -204 45.5t-132 122.5t-46 186t46 185.5t132 122t204 46.5v88h44v-88q118 -3 204 -46.5t132 -122t46 -185.5t-46 -186zM188 124q90 -82 250 -86v624q-160 -4 -250 -86.5t-90 -225.5q0 -144 90 -226zM730 124
q90 82 90 226q0 143 -90 225.5t-250 86.5v-624q160 4 250 86z" />
    <glyph glyph-name="uni0432.loclBGR" horiz-adv-x="586" 
d="M504 326.5q34 -48.5 34 -119.5q0 -64 -29 -113t-82 -76t-123 -27q-112 0 -176 69t-64 190v211q0 117 65.5 184t178.5 67q95 0 149.5 -44t54.5 -120q0 -51 -27 -90.5t-78 -62.5q63 -20 97 -68.5zM159.5 617.5q-53.5 -55.5 -53.5 -155.5v-93l182 30q182 30 182 150
q0 58 -43 91t-118 33q-96 0 -149.5 -55.5zM443.5 78.5q51.5 47.5 51.5 129.5q0 73 -41.5 115t-112.5 42q-23 0 -43 -4l-192 -32v-79q0 -102 52.5 -160.5t145.5 -58.5q88 0 139.5 47.5z" />
    <glyph glyph-name="uni0433.loclBGR" horiz-adv-x="502" 
d="M99.5 26.5q-55.5 37.5 -55.5 98.5q0 41 20 68t63.5 45.5t119.5 31.5q62 12 95 24t47 29t14 44q0 45 -40.5 69.5t-111.5 24.5q-51 0 -89.5 -13.5t-76.5 -42.5l-23 30q42 33 86.5 49t102.5 16q88 0 140.5 -36t52.5 -97q0 -38 -17.5 -62.5t-58.5 -41t-115 -29.5
q-66 -13 -101.5 -26.5t-50.5 -32t-15 -48.5q0 -44 44 -71.5t116 -27.5q58 0 108 21t79 57l29 -26q-34 -42 -91 -66.5t-125 -24.5q-91 0 -146.5 37.5z" />
    <glyph glyph-name="uni0434.loclBGR" horiz-adv-x="632" 
d="M550 494v-507q0 -112 -69.5 -175.5t-189.5 -63.5q-49 0 -101.5 14t-100.5 46l21 34q90 -54 179 -54q103 0 161 52.5t58 144.5v123q-28 -54 -84.5 -85t-126.5 -31q-72 0 -128 32.5t-87.5 90.5t-31.5 132t31.5 132t87.5 90.5t128 32.5q70 0 126.5 -31.5t85.5 -85.5l1 109
h40zM408.5 58q47.5 27 73.5 76t26 113t-26 113t-73.5 76t-108.5 27q-62 0 -109 -27t-73 -76t-26 -113t26 -113t73 -76t109 -27q61 0 108.5 27z" />
    <glyph glyph-name="uni0436.loclBGR" horiz-adv-x="686" 
d="M678 0h-59l-255 237v-237h-42v237l-255 -237h-59l272 253l-242 241h57l227 -226v432h42v-432l226 226h57l-241 -241z" />
    <glyph glyph-name="uni0437.loclBGR" horiz-adv-x="543" 
d="M462 80.5q35 -49.5 35 -115.5q0 -64 -30 -113.5t-84.5 -76.5t-126.5 -27q-70 0 -124 20t-98 63l25 30q45 -40 89.5 -56.5t107.5 -16.5q91 0 145 48t54 129q0 78 -51.5 121t-143.5 43h-92v40h92q165 0 165 149q0 68 -46.5 107.5t-125.5 39.5q-49 0 -97 -18.5t-82 -50.5
l-27 27q85 82 211 82q95 0 152 -50.5t57 -135.5q0 -62 -26 -105t-75 -64q61 -20 96 -69.5z" />
    <glyph glyph-name="uni0438.loclBGR" 
d="M513 494v-494h-40v99q-29 -49 -79 -77.5t-112 -28.5q-96 0 -151 57t-55 159v285h42v-283q0 -86 43.5 -132t123.5 -46q54 0 96.5 24.5t66 67t23.5 94.5v275h42z" />
    </font>
</defs>
</svg>
