<?xml version="1.0" standalone="no"?>
<!DOCTYPE svg PUBLIC "-//W3C//DTD SVG 1.1//EN" "http://www.w3.org/Graphics/SVG/1.1/DTD/svg11.dtd" >
<svg xmlns="http://www.w3.org/2000/svg" xmlns:xlink="http://www.w3.org/1999/xlink" version="1.1">
<metadata>
Created by FontForge 20201107 at Thu Jan 23 13:03:04 2020
 By 
Copyright (c) 2012 by Fontfabric. All rights reserved.
</metadata>
<defs>
<font id="Nexa-Heavy" horiz-adv-x="614" >
  <font-face 
    font-family="Nexa Heavy"
    font-weight="900"
    font-stretch="normal"
    units-per-em="1000"
    panose-1="0 0 10 0 0 0 0 0 0 0"
    ascent="800"
    descent="-200"
    x-height="494"
    cap-height="700"
    bbox="-488 -284 1216 992"
    underline-thickness="50"
    underline-position="-100"
    unicode-range="U+000D-FB02"
  />
<missing-glyph horiz-adv-x="658" 
d="M39 700h554v-700h-554v700zM355 256q0 22 11.5 36t36.5 23q53 18 77.5 49.5t24.5 78.5q0 71 -50.5 112.5t-138.5 41.5q-56 0 -98.5 -20.5t-65 -56.5t-20.5 -83h103q0 32 22.5 51t61.5 19q38 0 59 -17t21 -47q0 -22 -15.5 -37t-48.5 -26q-43 -15 -63 -42.5t-20 -73.5v-22
h103v14zM347.5 98q16.5 16 16.5 41t-16.5 41t-42.5 16t-43 -16t-17 -41t17 -41t43 -16t42.5 16z" />
    <glyph glyph-name="fi" unicode="fi" horiz-adv-x="689" 
d="M630 0h-157v368h-208v-368h-157v368h-87v126h87v26q0 66 28 110.5t74.5 65.5t101.5 21q66 0 114 -28l-46 -106q-28 10 -48 10q-31 0 -49 -18.5t-18 -53.5v-27h365v-494zM485.5 567q-25.5 24 -25.5 61q0 38 26 62t66 24t66 -24t26 -62q0 -37 -25.5 -61t-66.5 -24t-66.5 24
z" />
    <glyph glyph-name="fl" unicode="fl" horiz-adv-x="686" 
d="M627 700v-700h-157v567q-43 26 -103 26q-53 0 -77.5 -22t-24.5 -69v-10h123v-124h-123v-368h-157v368h-87v126h87v23q0 60 30.5 105.5t84.5 70t123 24.5q67 0 124 -21v4h157z" />
    <glyph glyph-name="f_f" unicode="ff" horiz-adv-x="791" 
d="M641 494h135v-126h-135v-368h-157v368h-219v-368h-157v368h-87v126h87v9q0 66 28.5 110t74.5 65t101 21q79 0 133 -34l-54 -98q-27 11 -54 11q-34 0 -53 -18t-19 -55v-13h219v33q0 66 28 110t74 65t99 21q84 0 142 -46l-53 -99q-34 21 -65 21t-49.5 -17.5t-18.5 -54.5
v-31z" />
    <glyph glyph-name=".notdef" horiz-adv-x="658" 
d="M39 700h554v-700h-554v700zM355 256q0 22 11.5 36t36.5 23q53 18 77.5 49.5t24.5 78.5q0 71 -50.5 112.5t-138.5 41.5q-56 0 -98.5 -20.5t-65 -56.5t-20.5 -83h103q0 32 22.5 51t61.5 19q38 0 59 -17t21 -47q0 -22 -15.5 -37t-48.5 -26q-43 -15 -63 -42.5t-20 -73.5v-22
h103v14zM347.5 98q16.5 16 16.5 41t-16.5 41t-42.5 16t-43 -16t-17 -41t17 -41t43 -16t42.5 16z" />
    <glyph glyph-name="uni0000" horiz-adv-x="600" 
 />
    <glyph glyph-name="uni0000" horiz-adv-x="600" 
 />
    <glyph glyph-name="nonmarkingreturn" unicode="&#xd;" horiz-adv-x="322" 
 />
    <glyph glyph-name="space" unicode=" " horiz-adv-x="234" 
 />
    <glyph glyph-name="exclam" unicode="!" horiz-adv-x="306" 
d="M68 700h170l-13 -484h-144zM88.5 14q-25.5 24 -25.5 61t25.5 61t64.5 24t64.5 -24t25.5 -61t-25.5 -61t-64.5 -24t-64.5 24z" />
    <glyph glyph-name="quotedbl" unicode="&#x22;" horiz-adv-x="448" 
d="M62 700h132v-270h-132v270zM255 700h132v-270h-132v270z" />
    <glyph glyph-name="numbersign" unicode="#" horiz-adv-x="720" 
d="M683 426h-98l-41 -165h72v-127h-103l-33 -134h-150l33 134h-106l-33 -134h-149l33 134h-72v127h103l40 165h-76v127h107l36 147h149l-36 -147h108l36 147h149l-36 -147h67v-127zM397 259l41 169h-112l-41 -169h112z" />
    <glyph glyph-name="dollar" unicode="$" horiz-adv-x="659" 
d="M569 63q-61 -58 -164 -74v-96h-136v95q-68 8 -129 32.5t-108 62.5l85 119q93 -73 217 -73q62 0 98.5 21t36.5 57q0 34 -34 53t-108 27q-143 16 -209.5 67t-66.5 146q0 80 56 136t151 73v99h136v-95q59 -7 112.5 -26.5t96.5 -50.5l-77 -115q-82 57 -181 57
q-61 0 -97.5 -20t-36.5 -54q0 -33 31.5 -51t105.5 -27q142 -16 212 -70.5t70 -149.5q0 -85 -61 -143z" />
    <glyph glyph-name="percent" unicode="%" horiz-adv-x="854" 
d="M83 429q-47 45 -47 117t47 116.5t122 44.5q77 0 123.5 -44t46.5 -117t-47 -117.5t-123 -44.5q-75 0 -122 45zM581 700h148l-456 -700h-148zM245.5 505.5q15.5 15.5 15.5 40.5t-15.5 40.5t-40.5 15.5t-40 -15.5t-15 -40.5t15 -40.5t40 -15.5t40.5 15.5zM527 37.5
q-47 44.5 -47 116.5t47 117t122 45q76 0 123 -44.5t47 -117.5t-46.5 -117t-123.5 -44q-75 0 -122 44.5zM689.5 113.5q15.5 15.5 15.5 40.5t-15.5 40.5t-40.5 15.5t-40 -15.5t-15 -40.5t15 -40.5t40 -15.5t40.5 15.5z" />
    <glyph glyph-name="ampersand" unicode="&#x26;" horiz-adv-x="696" 
d="M608 -11l-89 81q-92 -83 -229 -83q-75 0 -129.5 23.5t-83.5 65.5t-29 95q0 117 143 199q-43 43 -61 79t-18 79q0 52 27.5 94.5t77.5 67t115 24.5q57 0 101.5 -22.5t69.5 -62.5t25 -89q0 -53 -34 -102t-100 -90l106 -96q22 43 35 107l123 -34q-16 -95 -57 -163l86 -78z
M269.5 576.5q-19.5 -18.5 -19.5 -45.5q0 -25 12 -48t46 -57q45 30 64 55t19 52t-18 44.5t-49 17.5q-35 0 -54.5 -18.5zM425 155l-147 134q-78 -40 -78 -101q0 -33 26.5 -54.5t71.5 -21.5q75 0 127 43z" />
    <glyph glyph-name="quotesingle" unicode="'" horiz-adv-x="255" 
d="M62 700h132v-270h-132v270z" />
    <glyph glyph-name="parenleft" unicode="(" horiz-adv-x="364" 
d="M92 52.5q-60 122.5 -60 265.5t60 265.5t169 204.5l86 -97q-78 -62 -123 -162t-45 -211t45 -211t123 -163l-86 -96q-109 82 -169 204.5z" />
    <glyph glyph-name="parenright" unicode=")" horiz-adv-x="364" 
d="M17 -56q79 63 123.5 162.5t44.5 211.5q0 111 -45 211t-123 162l87 97q109 -82 168.5 -204.5t59.5 -265.5t-59.5 -265.5t-168.5 -204.5z" />
    <glyph glyph-name="asterisk" unicode="*" horiz-adv-x="422" 
d="M381 541l-92 -17l65 -67l-93 -66l-50 82l-49 -82l-96 66l64 66l-89 18l33 107l86 -35l-6 87h116l-13 -89l93 37z" />
    <glyph glyph-name="plus" unicode="+" horiz-adv-x="545" 
d="M487 394v-132h-143v-144h-144v144h-142v132h142v140h144v-140h143z" />
    <glyph glyph-name="comma" unicode="," horiz-adv-x="268" 
d="M199 135.5q25 -24.5 25 -64.5q0 -33 -14 -71.5t-53 -121.5h-85l28 120q-26 7 -41 27.5t-15 49.5q0 38 25 61.5t65 23.5t65 -24.5z" />
    <glyph glyph-name="hyphen" unicode="-" horiz-adv-x="505" 
d="M58 354h389v-129h-389v129z" />
    <glyph glyph-name="period" unicode="." horiz-adv-x="267" 
d="M68.5 14q-25.5 24 -25.5 61t25.5 61t65.5 24q39 0 64.5 -24t25.5 -61t-25.5 -61t-64.5 -24q-40 0 -65.5 24z" />
    <glyph glyph-name="slash" unicode="/" horiz-adv-x="519" 
d="M346 756h149l-322 -835h-149z" />
    <glyph glyph-name="zero" unicode="0" horiz-adv-x="725" 
d="M198.5 24q-71.5 38 -110 107.5t-38.5 162.5v110q0 93 38.5 162.5t110 107.5t167.5 38q95 0 166.5 -38t110 -107.5t38.5 -162.5v-110q0 -93 -38.5 -162.5t-110 -107.5t-166.5 -38q-96 0 -167.5 38zM475.5 176q40.5 44 40.5 118v110q0 75 -40 118.5t-110 43.5t-110 -43.5
t-40 -118.5v-110q0 -75 40 -118.5t110 -43.5q69 0 109.5 44z" />
    <glyph glyph-name="one" unicode="1" horiz-adv-x="461" 
d="M327 134h110v-134h-394v134h123v379l-111 -33v138l256 90h16v-574z" />
    <glyph glyph-name="two" unicode="2" horiz-adv-x="685" 
d="M213 140h417v-140h-580v167q0 114 75.5 173.5t216.5 59.5q57 0 91.5 25t34.5 64q0 38 -31.5 60t-86.5 22q-59 0 -91.5 -22t-35.5 -64h-164q2 105 79.5 164.5t211.5 59.5q86 0 150 -26.5t98.5 -76t34.5 -115.5q0 -225 -288 -225q-63 0 -97.5 -24.5t-34.5 -70.5v-31z" />
    <glyph glyph-name="three" unicode="3" horiz-adv-x="677" 
d="M603.5 297.5q28.5 -40.5 28.5 -96.5q0 -63 -37.5 -111.5t-104.5 -75t-155 -26.5t-154 29t-102.5 81.5t-36.5 121.5h164q0 -41 37 -66t98 -25q56 0 90 23t34 62t-31 60t-88 21h-126v125h115q58 0 89 19t31 54t-32 56.5t-87 21.5q-56 0 -89.5 -22.5t-33.5 -59.5h-160
q0 67 35.5 117t99 77.5t148.5 27.5q82 0 145 -26.5t98.5 -74t35.5 -108.5q0 -49 -26 -88t-69 -56q55 -20 83.5 -60.5z" />
    <glyph glyph-name="four" unicode="4" horiz-adv-x="682" 
d="M639 264v-138h-77v-126h-159v126h-370l-13 144l376 430h166v-436h77zM404 504l-210 -242h210v242z" />
    <glyph glyph-name="five" unicode="5" horiz-adv-x="661" 
d="M550.5 395q72.5 -59 72.5 -173q0 -69 -35.5 -122t-100 -82t-148.5 -29q-140 0 -215 60t-75 172h166q0 -42 33 -66.5t89 -24.5q55 0 87 25.5t32 68.5q0 44 -31 68t-89 24h-268v384h517v-143h-358v-103h109q142 0 214.5 -59z" />
    <glyph glyph-name="six" unicode="6" horiz-adv-x="692" 
d="M529.5 425q58.5 -28 90.5 -79.5t32 -118.5q0 -71 -37.5 -125t-105 -83.5t-156.5 -29.5q-90 0 -158.5 29t-105.5 83t-37 125v247q0 71 37 125t104 83.5t155 29.5q137 0 213 -55.5t77 -154.5h-163q-3 34 -37 53.5t-89 19.5q-58 0 -94 -28.5t-36 -74.5v-70q32 25 78 38.5
t98 13.5q76 0 134.5 -28zM449 157.5q37 26.5 37 69.5t-37 70t-97 27q-61 0 -97.5 -26.5t-36.5 -70.5t36.5 -70t97.5 -26q60 0 97 26.5z" />
    <glyph glyph-name="seven" unicode="7" horiz-adv-x="583" 
d="M25 700h545v-81l-306 -619h-186l281 556h-334v144z" />
    <glyph glyph-name="eight" unicode="8" horiz-adv-x="696" 
d="M622 298q27 -44 27 -96q0 -103 -79 -159.5t-222 -56.5q-141 0 -221 57.5t-80 158.5q0 52 27 96t70 65q-36 27 -55.5 64.5t-19.5 82.5q0 61 34.5 107t97.5 71t147 25q85 0 148 -25t97 -71t34 -107q0 -44 -19.5 -82t-55.5 -65q43 -21 70 -65zM261 559q-33 -23 -33 -61
q0 -37 33 -60t87 -23t87 23t33 60q0 38 -33 61t-87 23t-87 -23zM446 148q36 24 36 64t-36 64t-98 24t-98 -24t-36 -64t36 -64t98 -24t98 24z" />
    <glyph glyph-name="nine" unicode="9" horiz-adv-x="689" 
d="M493 681q68 -30 106 -83.5t38 -123.5v-245q0 -73 -37 -127t-105 -83.5t-157 -29.5q-138 0 -214.5 55t-77.5 156h164q2 -34 36.5 -54t89.5 -20q57 0 95.5 29.5t38.5 77.5v64q-66 -50 -168 -50q-79 0 -138 27.5t-91 79t-32 119.5q0 71 36.5 125t103.5 83.5t155 29.5
q89 0 157 -30zM434.5 402.5q36.5 26.5 36.5 70.5q0 43 -36.5 69.5t-95.5 26.5q-60 0 -96 -26.5t-36 -69.5q0 -44 36 -70.5t96 -26.5q59 0 95.5 26.5z" />
    <glyph glyph-name="colon" unicode=":" horiz-adv-x="267" 
d="M68.5 14q-25.5 24 -25.5 61t25.5 61t65.5 24q39 0 64.5 -24t25.5 -61t-25.5 -61t-64.5 -24q-40 0 -65.5 24zM68.5 294q-25.5 24 -25.5 61t25.5 61t65.5 24q39 0 64.5 -24t25.5 -61t-25.5 -61t-64.5 -24q-40 0 -65.5 24z" />
    <glyph glyph-name="semicolon" unicode=";" horiz-adv-x="268" 
d="M199 135.5q25 -24.5 25 -64.5q0 -33 -14 -71.5t-53 -121.5h-85l28 120q-26 7 -41 27.5t-15 49.5q0 38 25 61.5t65 23.5t65 -24.5zM69.5 294q-25.5 24 -25.5 61t25.5 61t65.5 24q39 0 64.5 -24t25.5 -61t-25.5 -61t-64.5 -24q-40 0 -65.5 24z" />
    <glyph glyph-name="less" unicode="&#x3c;" horiz-adv-x="425" 
d="M371 461l-155 -151l155 -149l-99 -97l-220 221v53l220 220z" />
    <glyph glyph-name="equal" unicode="=" horiz-adv-x="548" 
d="M58 481h432v-129h-432v129zM58 268h432v-129h-432v129z" />
    <glyph glyph-name="greater" unicode="&#x3e;" horiz-adv-x="425" 
d="M153 558l220 -220v-53l-220 -221l-99 97l155 149l-155 151z" />
    <glyph glyph-name="question" unicode="?" horiz-adv-x="600" 
d="M228.5 357.5q26.5 38.5 84.5 56.5q44 15 65.5 34.5t21.5 45.5q0 34 -27 53.5t-74 19.5q-48 0 -76.5 -23.5t-28.5 -63.5h-161q-4 65 28 117t93.5 81t140.5 29q83 0 144 -26t94 -74.5t33 -114.5q0 -60 -33.5 -101t-101.5 -67q-37 -14 -53 -33t-16 -50v-25h-160v38
q0 65 26.5 103.5zM217.5 14q-25.5 24 -25.5 61t25.5 61t64.5 24q40 0 65 -23.5t25 -61.5q0 -37 -25.5 -61t-64.5 -24t-64.5 24z" />
    <glyph glyph-name="at" unicode="@" horiz-adv-x="919" 
d="M692 586q97 -47 153 -132t56 -196q0 -80 -28 -137t-73 -86t-97 -29q-81 0 -118 66q-24 -31 -58 -45.5t-85 -14.5q-56 0 -100.5 27t-69 75t-24.5 107q0 62 25 110.5t70 75.5t105 27q78 0 123 -48l8 33h97v-221q0 -37 8.5 -54.5t29.5 -17.5q26 0 43 31t17 96
q0 126 -81 193.5t-216 67.5q-89 0 -158 -37t-107.5 -103.5t-38.5 -151.5t36 -150t101 -100.5t150 -35.5q73 0 128 26l41 -108q-74 -39 -178 -39q-117 0 -210.5 52t-147 144.5t-53.5 211.5q0 118 56 211.5t155.5 146t225.5 52.5q118 0 215 -47zM529.5 154q24.5 25 24.5 67
q0 44 -21.5 69.5t-60.5 25.5t-62.5 -23.5t-23.5 -66.5q0 -46 21 -71.5t60 -25.5q38 0 62.5 25z" />
    <glyph glyph-name="A" unicode="A" horiz-adv-x="787" 
d="M617 0l-52 126h-345l-52 -126h-175l314 700h175l312 -700h-177zM394 543l-115 -276h228z" />
    <glyph glyph-name="B" unicode="B" horiz-adv-x="726" 
d="M657 298.5q30 -45.5 30 -102.5q0 -92 -70.5 -144t-194.5 -52h-346v700h346q113 0 178 -50t65 -136q0 -51 -23.5 -89.5t-65.5 -58.5q51 -22 81 -67.5zM237 565v-139h188q39 0 60 18t21 51t-21.5 51.5t-59.5 18.5h-188zM501.5 159q24.5 21 24.5 58q0 38 -24.5 58.5
t-68.5 20.5h-196v-158h196q44 0 68.5 21z" />
    <glyph glyph-name="C" unicode="C" horiz-adv-x="704" 
d="M214.5 30q-85.5 46 -132 129t-46.5 191t47.5 191.5t132.5 129t194 45.5q155 0 266 -109l-101 -101q-67 64 -161 64q-63 0 -111.5 -27.5t-75 -77.5t-26.5 -115t26.5 -115t75 -77.5t111.5 -27.5q50 0 96 18t80 52l96 -107q-113 -109 -273 -109q-113 0 -198.5 46z" />
    <glyph glyph-name="D" unicode="D" horiz-adv-x="759" 
d="M552.5 657q81.5 -43 126 -122.5t44.5 -184.5t-44.5 -184.5t-126 -122.5t-189.5 -43h-287v700h287q108 0 189.5 -43zM505 199q54 56 54 151q0 63 -24.5 109.5t-69 72t-102.5 25.5h-123v-414h123q88 0 142 56z" />
    <glyph glyph-name="E" unicode="E" horiz-adv-x="666" 
d="M235 138h386v-138h-545v700h534v-137h-375v-142h355v-132h-355v-151z" />
    <glyph glyph-name="F" unicode="F" horiz-adv-x="636" 
d="M593 557h-353v-167h333v-139h-333v-251h-164v700h517v-143z" />
    <glyph glyph-name="G" unicode="G" horiz-adv-x="752" 
d="M706 414v-312q-53 -57 -130.5 -87.5t-170.5 -30.5q-111 0 -194.5 45t-129 128t-45.5 193q0 107 48 190.5t134.5 130t198.5 46.5q81 0 146.5 -28t120.5 -85l-99 -98q-33 33 -77.5 51t-91.5 18q-101 0 -159.5 -60.5t-58.5 -164.5q0 -67 26 -118t74 -79t111 -28q99 0 158 51
v107h-190v131h329z" />
    <glyph glyph-name="H" unicode="H" horiz-adv-x="777" 
d="M537 700h163v-700h-163v281h-297v-281h-164v700h164v-271h297v271z" />
    <glyph glyph-name="I" unicode="I" horiz-adv-x="317" 
d="M76 700h164v-700h-164v700z" />
    <glyph glyph-name="J" unicode="J" horiz-adv-x="708" 
d="M643 700v-403q0 -95 -38.5 -165t-109.5 -108t-165 -38q-146 0 -227.5 81t-82.5 229h160q1 -79 40 -121.5t110 -42.5q70 0 109.5 43.5t39.5 123.5v259h-204v142h368z" />
    <glyph glyph-name="K" unicode="K" horiz-adv-x="684" 
d="M698 0h-213l-246 278v-278h-163v700h163v-274l230 274h202l-295 -343z" />
    <glyph glyph-name="L" unicode="L" horiz-adv-x="609" 
d="M76 700h164v-552h352v-148h-516v700z" />
    <glyph glyph-name="M" unicode="M" horiz-adv-x="924" 
d="M701 700h147v-700h-163v438l-206 -252h-32l-208 253v-439h-163v700h147l239 -298z" />
    <glyph glyph-name="N" unicode="N" horiz-adv-x="777" 
d="M538 700h163v-700h-147l-317 433l2 -189v-244h-163v700h147l317 -435l-2 187v248z" />
    <glyph glyph-name="O" unicode="O" horiz-adv-x="826" 
d="M214.5 28.5q-85.5 45.5 -132 128.5t-46.5 193t46.5 193t132 128.5t198.5 45.5t198.5 -45.5t132 -128.5t46.5 -193t-46.5 -193t-132 -128.5t-198.5 -45.5t-198.5 45.5zM524.5 156.5q48.5 27.5 75 77.5t26.5 116t-26.5 116t-75 77.5t-111.5 27.5t-111 -27.5t-74.5 -77.5
t-26.5 -116t26.5 -116t74.5 -77.5t111 -27.5t111.5 27.5z" />
    <glyph glyph-name="P" unicode="P" horiz-adv-x="698" 
d="M552.5 669.5q60.5 -30.5 93.5 -87.5t33 -133t-33 -133t-93.5 -87.5t-141.5 -30.5h-171v-198h-164v700h335q81 0 141.5 -30.5zM485.5 370q30.5 29 30.5 78t-30.5 78t-82.5 29h-164v-214h164q52 0 82.5 29z" />
    <glyph glyph-name="Q" unicode="Q" horiz-adv-x="824" 
d="M703 -70l-97 96q-83 -43 -193 -43q-113 0 -198.5 45.5t-132 128.5t-46.5 193t46.5 193t132 128.5t198.5 45.5t198.5 -45.5t132 -128.5t46.5 -193q0 -127 -62 -217l89 -90zM524.5 156.5q48.5 27.5 75 77.5t26.5 116t-26.5 116t-75 77.5t-111.5 27.5t-111 -27.5
t-74.5 -77.5t-26.5 -116t26.5 -116t74.5 -77.5t111 -27.5t111.5 27.5z" />
    <glyph glyph-name="R" unicode="R" horiz-adv-x="724" 
d="M335 231h-95v-231h-164v700h341q76 0 133 -29.5t88 -83.5t31 -124q0 -80 -41.5 -137t-117.5 -81l198 -245h-195zM478.5 534q-28.5 26 -80.5 26h-159v-197h159q53 0 81 25.5t28 72.5t-28.5 73z" />
    <glyph glyph-name="S" unicode="S" horiz-adv-x="659" 
d="M169.5 10q-79.5 26 -137.5 73l85 119q93 -73 217 -73q62 0 98.5 21t36.5 57q0 34 -34 53t-108 27q-143 16 -209.5 67t-66.5 146q0 64 36 113t101 76t150 27q73 0 142.5 -21t122.5 -59l-77 -115q-82 57 -181 57q-61 0 -97.5 -20t-36.5 -54q0 -33 31.5 -51t105.5 -27
q142 -16 212 -70.5t70 -149.5q0 -66 -37 -116.5t-104 -78t-154 -27.5q-86 0 -165.5 26z" />
    <glyph glyph-name="T" unicode="T" horiz-adv-x="622" 
d="M607 700v-143h-214v-557h-164v557h-213v143h591z" />
    <glyph glyph-name="U" unicode="U" horiz-adv-x="766" 
d="M148.5 68.5q-83.5 83.5 -83.5 233.5v398h164v-398q0 -80 40.5 -126t113.5 -46q71 0 112 46t41 126v398h164v-398q0 -150 -83 -233.5t-234 -83.5t-234.5 83.5z" />
    <glyph glyph-name="V" unicode="V" horiz-adv-x="739" 
d="M563 700h181l-288 -700h-173l-288 700h181l94 -238l99 -272l101 272z" />
    <glyph glyph-name="W" unicode="W" horiz-adv-x="1107" 
d="M919 700h179l-245 -700h-155l-66 195l-80 235l-78 -235l-67 -195h-152l-246 700h179l88 -279l57 -199l159 478h118l163 -481l61 202z" />
    <glyph glyph-name="X" unicode="X" horiz-adv-x="694" 
d="M455 357l241 -357h-199l-81 122l-69 113l-67 -112l-81 -123h-201l237 350l-224 350h193l74 -118l66 -114l69 114l76 118h194z" />
    <glyph glyph-name="Y" unicode="Y" horiz-adv-x="710" 
d="M717 700l-285 -426v-274h-163v274l-275 426h192l166 -272l170 272h195z" />
    <glyph glyph-name="Z" unicode="Z" horiz-adv-x="631" 
d="M254 143h343v-143h-572v61l340 500h-318v139h544v-59z" />
    <glyph glyph-name="bracketleft" unicode="[" horiz-adv-x="362" 
d="M70 705h257v-129h-111v-608h111v-128h-257v865z" />
    <glyph glyph-name="backslash" unicode="\" horiz-adv-x="519" 
d="M495 -79h-148l-323 835h149z" />
    <glyph glyph-name="bracketright" unicode="]" horiz-adv-x="362" 
d="M292 -160h-257v128h111v608h-111v129h257v-865z" />
    <glyph glyph-name="asciicircum" unicode="^" horiz-adv-x="633" 
d="M602 342h-162l-125 191l-124 -191h-159l236 358h95z" />
    <glyph glyph-name="underscore" unicode="_" horiz-adv-x="539" 
d="M27 -8h485v-128h-485v128z" />
    <glyph glyph-name="grave" unicode="`" horiz-adv-x="271" 
d="M-11 552l-105 148h169l67 -148h-131z" />
    <glyph glyph-name="a" unicode="a" horiz-adv-x="636" 
d="M577 494v-494h-136l-10 59q-63 -69 -164 -69q-69 0 -122.5 32.5t-83.5 91t-30 133.5t30 133.5t83.5 91t122.5 32.5q50 0 92 -17.5t72 -50.5l10 58h136zM389 156.5q33 34.5 33 90.5t-33 90.5t-85 34.5t-84.5 -35t-32.5 -90t32.5 -90t84.5 -35t85 34.5z" />
    <glyph glyph-name="b" unicode="b" horiz-adv-x="636" 
d="M492 471.5q54 -32.5 84 -91t30 -133.5t-30 -133.5t-84 -91t-123 -32.5q-101 0 -164 69l-10 -59h-136v700h157v-253q62 57 153 57q69 0 123 -32.5zM417 156.5q33 34.5 33 90.5t-33 90.5t-85 34.5t-84.5 -35t-32.5 -90t32.5 -90t84.5 -35t85 34.5z" />
    <glyph glyph-name="c" unicode="c" horiz-adv-x="518" 
d="M159.5 20.5q-61.5 31.5 -95 89.5t-33.5 136q0 77 34 135.5t95 91t141 32.5q55 0 105 -19.5t89 -57.5l-87 -95q-42 39 -99 39q-54 0 -88 -34.5t-34 -90.5t33.5 -90.5t88.5 -34.5q61 0 104 43l89 -94q-83 -82 -198 -82q-83 0 -144.5 31.5z" />
    <glyph glyph-name="d" unicode="d" horiz-adv-x="637" 
d="M577 700v-700h-136l-10 59q-63 -69 -164 -69q-69 0 -122.5 32.5t-83.5 91t-30 133.5t30 133.5t83.5 91t122.5 32.5q91 0 153 -57v253h157zM389 156.5q33 34.5 33 90.5t-33 90.5t-85 34.5t-84.5 -35t-32.5 -90t32.5 -90t84.5 -35t85 34.5z" />
    <glyph glyph-name="e" unicode="e" horiz-adv-x="587" 
d="M437 474.5q59 -30.5 90.5 -86t31.5 -129.5q0 -24 -5 -59h-363q7 -38 41 -61.5t87 -23.5q37 0 72 11t60 31l82 -88q-42 -39 -99.5 -60t-122.5 -21q-86 0 -149 31.5t-97 89.5t-34 137q0 76 33.5 135t93.5 91.5t139 32.5q81 0 140 -30.5zM225.5 357q-29.5 -24 -33.5 -67h218
q-3 43 -31.5 67t-76.5 24q-47 0 -76.5 -24z" />
    <glyph glyph-name="f" unicode="f" horiz-adv-x="416" 
d="M267 494h134v-126h-134v-368h-159v368h-87v126h87v26q0 66 28.5 110t74.5 65t99 21q83 0 142 -46l-53 -99q-18 11 -32.5 16t-32.5 5q-31 0 -49 -17.5t-18 -54.5v-26z" />
    <glyph glyph-name="g" unicode="g" 
d="M547.5 17.5q27.5 -40.5 27.5 -93.5q0 -62 -34 -109.5t-96 -73t-144 -25.5q-80 0 -140 26t-92.5 74t-32.5 111q0 16 1 24h151q-2 -49 27.5 -76t85.5 -27q50 0 81 22.5t31 59.5q0 38 -28.5 58.5t-81.5 20.5q-82 0 -143.5 31t-95 87.5t-33.5 131.5q0 72 34.5 128.5t96 88
t140.5 31.5q61 0 112 -24l58 72l115 -83l-66 -77q50 -57 50 -136q0 -55 -26.5 -101.5t-74.5 -76.5q50 -23 77.5 -63.5zM386 174q32 32 32 85t-31.5 84.5t-84.5 31.5q-52 0 -84 -31.5t-32 -84.5q0 -52 32 -84.5t84 -32.5t84 32z" />
    <glyph glyph-name="h" unicode="h" horiz-adv-x="618" 
d="M511.5 444q53.5 -61 53.5 -165v-279h-157v270q0 48 -23.5 75t-65.5 27q-46 0 -74.5 -31t-28.5 -81v-260h-157v700h157v-260q57 65 151 65q91 0 144.5 -61z" />
    <glyph glyph-name="i" unicode="i" horiz-adv-x="275" 
d="M71.5 567q-25.5 24 -25.5 61q0 38 26 62t66 24t66 -24t26 -62q0 -37 -25.5 -61t-66.5 -24t-66.5 24zM59 494h157v-494h-157v494z" />
    <glyph glyph-name="j" unicode="j" horiz-adv-x="277" 
d="M73 567q-26 24 -26 61t26 61.5t66 24.5q41 0 67 -24.5t26 -61.5t-26 -61t-67 -24q-40 0 -66 24zM-75 -205l35 113q28 -14 51 -14q25 0 37 17.5t12 54.5v528h157v-528q0 -97 -45.5 -150t-127.5 -53q-58 0 -119 32z" />
    <glyph glyph-name="k" unicode="k" horiz-adv-x="551" 
d="M560 0h-194l-151 196v-196h-156v700h156v-393l137 187h179l-178 -234z" />
    <glyph glyph-name="l" unicode="l" horiz-adv-x="275" 
d="M59 700h157v-700h-157v700z" />
    <glyph glyph-name="m" unicode="m" horiz-adv-x="916" 
d="M809 450q54 -55 54 -151v-299h-157v279q0 44 -20.5 68.5t-57.5 24.5q-41 0 -65 -28t-24 -74v-270h-156v279q0 44 -20 68.5t-57 24.5q-41 0 -65.5 -28t-24.5 -74v-270h-157v494h136l9 -55q26 32 62.5 49t78.5 17q48 0 86 -20.5t60 -56.5q60 77 170 77q94 0 148 -55z" />
    <glyph glyph-name="n" unicode="n" horiz-adv-x="618" 
d="M510.5 445q54.5 -60 54.5 -166v-279h-157v270q0 48 -24 75t-66 27q-46 0 -74 -31t-28 -81v-260h-157v494h136l10 -58q29 33 69.5 51t89.5 18q92 0 146.5 -60z" />
    <glyph glyph-name="o" unicode="o" horiz-adv-x="605" 
d="M158.5 21.5q-61.5 32.5 -94.5 90.5t-33 135t33 135t94.5 90.5t143.5 32.5t144 -32.5t95 -90.5t33 -135t-33 -135t-95 -90.5t-144 -32.5t-143.5 32.5zM386 157q32 35 32 90t-32 90t-84 35q-51 0 -83 -35t-32 -90t32 -90t83 -35q52 0 84 35z" />
    <glyph glyph-name="p" unicode="p" horiz-adv-x="636" 
d="M492 471.5q54 -32.5 84 -91t30 -133.5t-30 -133.5t-84 -91t-123 -32.5q-92 0 -153 58v-262h-157v708h136l10 -58q62 68 164 68q69 0 123 -32.5zM417 156.5q33 34.5 33 90.5t-33 90.5t-85 34.5t-84.5 -35t-32.5 -90t32.5 -90t84.5 -35t85 34.5z" />
    <glyph glyph-name="q" unicode="q" horiz-adv-x="637" 
d="M577 494v-708h-157v262q-61 -58 -153 -58q-69 0 -123 32.5t-84 91t-30 133.5t30 133.5t84 91t123 32.5q102 0 164 -68l10 58h136zM388.5 157q32.5 35 32.5 90t-32.5 90t-84.5 35t-85 -34.5t-33 -90.5t33 -90.5t85 -34.5t84.5 35z" />
    <glyph glyph-name="r" unicode="r" horiz-adv-x="461" 
d="M408 492.5q34 -12.5 59 -36.5l-66 -115q-21 13 -39 19t-38 6q-50 0 -79 -32t-29 -94v-240h-157v494h137l12 -62q48 73 132 73q34 0 68 -12.5z" />
    <glyph glyph-name="s" unicode="s" horiz-adv-x="506" 
d="M23 53l60 108q36 -22 83.5 -34t94.5 -12q65 0 65 35q0 18 -18 27t-60 12q-94 5 -149.5 47t-55.5 110q0 74 60 117.5t162 43.5q58 0 110.5 -14t90.5 -39l-61 -105q-56 32 -133 32q-76 0 -76 -36q0 -15 15.5 -23t52.5 -12q106 -8 161.5 -48t55.5 -112q0 -76 -61 -119.5
t-169 -43.5q-131 0 -228 66z" />
    <glyph glyph-name="t" unicode="t" horiz-adv-x="424" 
d="M413 19q-58 -29 -131 -29q-81 0 -128 45.5t-47 146.5v187h-84v125h84v123l156 17v-140h123v-125h-123v-187q0 -30 15 -44.5t41 -14.5q29 0 57 14z" />
    <glyph glyph-name="u" unicode="u" 
d="M555 494v-494h-136l-10 57q-28 -33 -68.5 -50.5t-88.5 -17.5q-91 0 -145 60t-54 166v279h157v-270q0 -48 23.5 -75t64.5 -27q45 0 72.5 31.5t27.5 81.5v259h157z" />
    <glyph glyph-name="v" unicode="v" horiz-adv-x="583" 
d="M414 494h167l-209 -494h-160l-210 494h171l59 -149l61 -179l61 179z" />
    <glyph glyph-name="w" unicode="w" horiz-adv-x="829" 
d="M661 494h166l-165 -494h-149l-41 121l-57 159l-57 -159l-41 -121h-150l-165 494h166l44 -152l38 -152l113 304h104l113 -305l38 153z" />
    <glyph glyph-name="x" unicode="x" horiz-adv-x="549" 
d="M380 251l166 -251h-180l-43 71l-49 83l-49 -83l-45 -71h-177l166 251l-153 243h177l46 -75l36 -68l38 68l46 75h173z" />
    <glyph glyph-name="y" unicode="y" horiz-adv-x="575" 
d="M403 494h170l-308 -708h-167l96 221l-192 487h169l57 -156l54 -161l58 161z" />
    <glyph glyph-name="z" unicode="z" horiz-adv-x="501" 
d="M249 137h218v-137h-442v52l212 309h-193v133h416v-50z" />
    <glyph glyph-name="braceleft" unicode="{" horiz-adv-x="373" 
d="M229.5 329.5q-17.5 -31.5 -56.5 -48.5q39 -17 56.5 -49t17.5 -82v-122q0 -32 13.5 -46t44.5 -14q23 0 41 2v-115q-39 -9 -87 -9q-164 0 -164 163v153q0 63 -66 63v112q66 0 66 63v153q0 163 164 163q40 0 87 -9v-116q-25 3 -41 3q-31 0 -44.5 -14t-13.5 -46v-123
q0 -50 -17.5 -81.5z" />
    <glyph glyph-name="bar" unicode="|" horiz-adv-x="307" 
d="M76 746h155v-823h-155v823z" />
    <glyph glyph-name="braceright" unicode="}" horiz-adv-x="373" 
d="M344 337v-112q-66 0 -66 -63v-153q0 -163 -164 -163q-48 0 -87 9v115q18 -2 41 -2q31 0 44.5 14t13.5 46v122q0 50 17.5 82t56.5 49q-39 17 -56.5 48.5t-17.5 81.5v123q0 32 -13.5 46t-44.5 14q-16 0 -41 -3v116q47 9 87 9q164 0 164 -163v-153q0 -63 66 -63z" />
    <glyph glyph-name="asciitilde" unicode="~" horiz-adv-x="619" 
d="M359 212q-24 10 -56 29q-26 15 -43.5 23t-33.5 8q-38 0 -68 -54l-106 39q14 66 54.5 104.5t101.5 38.5q28 0 54 -10t65 -30q30 -15 46 -22t30 -7q37 0 58 55l107 -40q-12 -65 -53.5 -104.5t-105.5 -39.5q-26 0 -50 10z" />
    <glyph glyph-name="uni00A0" unicode="&#xa0;" horiz-adv-x="234" 
 />
    <glyph glyph-name="exclamdown" unicode="&#xa1;" horiz-adv-x="286" 
d="M208.5 486q25.5 -24 25.5 -61t-25.5 -61t-64.5 -24q-40 0 -65 23.5t-25 61.5q0 37 25 61t65 24q39 0 64.5 -24zM71 284h145l13 -484h-171z" />
    <glyph glyph-name="cent" unicode="&#xa2;" horiz-adv-x="518" 
d="M357 -6v-88h-128v90q-93 20 -145.5 85.5t-52.5 164.5q0 98 53.5 164.5t144.5 86.5v89h128v-86q78 -15 138 -72l-87 -95q-42 39 -99 39q-54 0 -88 -34.5t-34 -90.5t33.5 -90.5t88.5 -34.5q61 0 104 43l89 -94q-63 -62 -145 -77z" />
    <glyph glyph-name="sterling" unicode="&#xa3;" horiz-adv-x="664" 
d="M619 139v-139h-567v137q44 9 66.5 43.5t22.5 77.5v12h-89v122h63q-13 52 -13 94q0 67 30.5 117t88.5 78t138 28q115 0 182.5 -55t63.5 -164h-151q-1 42 -25.5 63t-65.5 21q-46 0 -70.5 -25.5t-24.5 -72.5q0 -26 12 -84h201v-122h-177q1 -5 1 -15q0 -72 -43 -116h357z" />
    <glyph glyph-name="currency" unicode="&#xa4;" horiz-adv-x="625" 
d="M110 215q-20 43 -20 95q0 51 21 97l-59 59l107 106l66 -66q40 16 87 16q46 0 88 -16l66 66l107 -106l-57 -57q21 -45 21 -99q0 -48 -21 -96l56 -55l-106 -106l-65 64q-43 -15 -89 -15q-47 0 -87 14l-64 -64l-107 107zM377.5 246q24.5 24 24.5 65q0 42 -24.5 66.5
t-65.5 24.5q-40 0 -64 -25t-24 -66q0 -40 24.5 -64.5t63.5 -24.5q41 0 65.5 24z" />
    <glyph glyph-name="yen" unicode="&#xa5;" horiz-adv-x="771" 
d="M747 700l-221 -330h94v-107h-158v-45h158v-107h-158v-111h-163v111h-158v107h158v45h-158v107h96l-213 330h191l167 -272l170 272h195z" />
    <glyph glyph-name="brokenbar" unicode="&#xa6;" horiz-adv-x="307" 
d="M76 746h155v-367h-155v367zM76 300h155v-377h-155v377z" />
    <glyph glyph-name="section" unicode="&#xa7;" horiz-adv-x="625" 
d="M559 206q17 -30 17 -64q0 -47 -33 -83t-92.5 -56t-136.5 -20q-82 0 -153 23t-119 66l74 104q46 -34 93.5 -50.5t101.5 -16.5q108 0 108 41q0 39 -105 39q-119 2 -186.5 41t-67.5 106q0 37 20.5 66t54.5 41q-33 16 -51.5 45t-18.5 67q0 76 68.5 119t188.5 43
q70 0 131 -20.5t99 -56.5l-84 -88q-49 42 -141 42q-105 0 -105 -40q0 -20 23.5 -28.5t75.5 -8.5q121 -2 187.5 -41.5t66.5 -109.5q0 -35 -17 -64.5t-46 -45.5q30 -20 47 -50zM397 319.5q28 12.5 28 35.5t-28 36t-79 13q-52 0 -80 -13t-28 -36t28.5 -35.5t79.5 -12.5t79 12.5
z" />
    <glyph glyph-name="dieresis" unicode="&#xa8;" horiz-adv-x="530" 
d="M73.5 574.5q-23.5 20.5 -23.5 57.5q0 36 24 56.5t56 20.5q33 0 56.5 -20.5t23.5 -56.5q0 -37 -23.5 -57.5t-56.5 -20.5t-56.5 20.5zM295.5 574.5q-23.5 20.5 -23.5 57.5q0 36 24 56.5t56 20.5q33 0 57 -20.5t24 -56.5q0 -37 -24 -57.5t-57 -20.5t-56.5 20.5z" />
    <glyph glyph-name="copyright" unicode="&#xa9;" horiz-adv-x="819" 
d="M218.5 30.5q-83.5 45.5 -130 128.5t-46.5 191t46.5 191t130 128.5t191.5 45.5t191 -45.5t129 -128.5t46 -191t-46 -191t-129 -128.5t-191 -45.5t-191.5 45.5zM549.5 111q60.5 34 93.5 95.5t33 143.5t-33 143.5t-93.5 95.5t-139.5 34t-139.5 -34t-94 -96t-33.5 -143
t33.5 -143t94 -96t139.5 -34t139.5 34zM282 211.5q-55 51.5 -55 138.5q0 56 25.5 100t71 68t105.5 24q40 0 76.5 -15t65.5 -44l-67 -71q-30 30 -70 30t-65.5 -25.5t-25.5 -66.5q0 -40 25.5 -65t64.5 -25q43 0 75 32l69 -70q-65 -62 -146 -62q-94 0 -149 51.5z" />
    <glyph glyph-name="ordfeminine" unicode="&#xaa;" horiz-adv-x="468" 
d="M81.5 410q-42.5 46 -42.5 125t42.5 125t114.5 46q70 0 109 -45l5 39h98v-329h-98l-5 37q-39 -44 -109 -44q-72 0 -114.5 46zM169 586.5q-19 -19.5 -19 -51.5t19 -51.5t50 -19.5t50 19.5t19 51.5t-19 51.5t-50 19.5t-50 -19.5zM59 314h350v-97h-350v97z" />
    <glyph glyph-name="guillemotleft" unicode="&#xab;" horiz-adv-x="591" 
d="M334 518l-140 -224l140 -224h-162l-140 224l140 224h162zM556 518l-140 -224l140 -224h-162l-140 224l140 224h162z" />
    <glyph glyph-name="logicalnot" unicode="&#xac;" horiz-adv-x="543" 
d="M339 269h-281v120h417v-247h-136v127z" />
    <glyph glyph-name="uni00AD" unicode="&#xad;" horiz-adv-x="505" 
d="M58 354h389v-129h-389v129z" />
    <glyph glyph-name="registered" unicode="&#xae;" horiz-adv-x="326" 
d="M269.5 677q40.5 -40 40.5 -106q0 -65 -41 -105.5t-106 -40.5t-106 40.5t-41 105.5q0 66 40.5 106t106.5 40t106.5 -40zM237 495.5q28 28.5 28 75.5q0 48 -28 77t-74 29t-73.5 -29t-27.5 -77q0 -47 27.5 -75.5t73.5 -28.5t74 28.5zM223.5 566.5q-7.5 -11.5 -21.5 -17.5
l31 -48h-50l-22 42h-11v-42h-44v142h67q26 0 42 -13.5t16 -36.5q0 -15 -7.5 -26.5zM170 605h-21v-28h21q8 0 12.5 4t4.5 11q0 13 -17 13z" />
    <glyph glyph-name="macron" unicode="&#xaf;" horiz-adv-x="444" 
d="M67 679h300v-113h-300v113z" />
    <glyph glyph-name="degree" unicode="&#xb0;" horiz-adv-x="373" 
d="M79.5 472.5q-41.5 38.5 -41.5 98.5t41.5 98t106.5 38t106.5 -38t41.5 -98t-41.5 -98.5t-106.5 -38.5t-106.5 38.5zM222 536.5q14 13.5 14 34.5q0 20 -14 34t-36 14t-36 -14t-14 -34q0 -21 14 -34.5t36 -13.5t36 13.5z" />
    <glyph glyph-name="plusminus" unicode="&#xb1;" horiz-adv-x="550" 
d="M201 198v131h-140v137h140v140h148v-140h140v-137h-140v-131h-148zM58 137h435v-129h-435v129z" />
    <glyph glyph-name="uni00B2" unicode="&#xb2;" horiz-adv-x="374" 
d="M137 537h198v-91h-299v95q0 58 34 87t98 37q37 4 54 12.5t17 25.5q0 16 -14 25t-37 9q-22 0 -37 -9t-17 -25h-96q0 52 42 85.5t106 33.5q71 0 112 -32t41 -89q0 -53 -32 -79.5t-91 -32.5q-42 -5 -60.5 -15t-18.5 -33v-4z" />
    <glyph glyph-name="uni00B3" unicode="&#xb3;" horiz-adv-x="378" 
d="M332 604.5q14 -21.5 14 -48.5q0 -54 -43 -85.5t-116 -31.5q-68 0 -113 34.5t-45 86.5h105q3 -33 55 -33q26 0 41.5 9.5t15.5 26.5q0 36 -56 36h-60v75h57q55 0 55 32q0 16 -15 26t-41 10q-23 0 -39.5 -10t-19.5 -26h-91q1 51 43 83.5t107 32.5t108 -32.5t43 -82.5
q0 -48 -42 -71q23 -10 37 -31.5z" />
    <glyph glyph-name="acute" unicode="&#xb4;" horiz-adv-x="267" 
d="M121 700h169l-105 -148h-131z" />
    <glyph glyph-name="uni00B5" unicode="&#xb5;" horiz-adv-x="620" 
d="M561 494v-494h-130l-12 53q-55 -62 -128 -62q-40 0 -75 18v-223h-157v708h157v-274q0 -44 24 -70t64 -26q44 0 72 31t28 80v259h157z" />
    <glyph glyph-name="paragraph" unicode="&#xb6;" horiz-adv-x="872" 
d="M839 554h-98v-756h-158v756h-149v-756h-158v391q-72 2 -127.5 36t-86 91t-30.5 128q0 70 34 129t95.5 93t140.5 34h537v-146z" />
    <glyph glyph-name="periodcentered" unicode="&#xb7;" horiz-adv-x="275" 
d="M72.5 229q-25.5 24 -25.5 61t25.5 61t65.5 24q39 0 64.5 -24t25.5 -61t-25.5 -61t-64.5 -24q-40 0 -65.5 24z" />
    <glyph glyph-name="cedilla" unicode="&#xb8;" horiz-adv-x="342" 
d="M284.5 -70q26.5 -27 26.5 -71q0 -47 -37.5 -76.5t-98.5 -29.5q-42 0 -77 13.5t-57 38.5l53 61q32 -27 72 -27q20 0 32 8.5t12 22.5q0 15 -12 24t-33 9t-35 -8l-30 28l38 99l97 -8l-22 -54q45 -3 71.5 -30z" />
    <glyph glyph-name="uni00B9" unicode="&#xb9;" horiz-adv-x="288" 
d="M194 531h63v-85h-227v85h66v183l-52 -13v84l140 35h10v-289z" />
    <glyph glyph-name="ordmasculine" unicode="&#xba;" horiz-adv-x="441" 
d="M87 409.5q-48 45.5 -48 125.5t48 125.5t132 45.5t132.5 -46t48.5 -125t-48.5 -125t-132.5 -46t-132 45.5zM269.5 483q18.5 19 18.5 52t-18.5 52t-50.5 19q-31 0 -50 -19t-19 -52t19 -52t50 -19q32 0 50.5 19zM48 314h343v-97h-343v97z" />
    <glyph glyph-name="guillemotright" unicode="&#xbb;" horiz-adv-x="591" 
d="M197 518l140 -224l-140 -224h-162l140 224l-140 224h162zM419 518l140 -224l-140 -224h-162l140 224l-140 224h162z" />
    <glyph glyph-name="onequarter" unicode="&#xbc;" horiz-adv-x="854" 
d="M194 416h63v-85h-227v85h66v183l-52 -13v84l140 35h10v-289zM542 700h111l-387 -700h-110zM818 148v-85h-43v-63h-98v63h-190l-4 83l167 223h125v-221h43zM587 148h90v120z" />
    <glyph glyph-name="onehalf" unicode="&#xbd;" horiz-adv-x="866" 
d="M194 416h63v-85h-227v85h66v183l-52 -13v84l140 35h10v-289zM542 700h111l-387 -700h-110zM628 91h198v-91h-299v95q0 58 34 87t98 37q37 4 54 12.5t17 25.5q0 16 -14 25t-37 9q-22 0 -37 -9t-17 -25h-96q0 52 42 85.5t106 33.5q71 0 112 -32t41 -89q0 -53 -32 -79.5
t-91 -32.5q-42 -5 -60.5 -15t-18.5 -33v-4z" />
    <glyph glyph-name="threequarters" unicode="&#xbe;" horiz-adv-x="914" 
d="M332 489.5q14 -21.5 14 -48.5q0 -54 -43 -85.5t-116 -31.5q-68 0 -113 34.5t-45 86.5h105q3 -33 55 -33q26 0 41.5 9.5t15.5 26.5q0 36 -56 36h-60v75h57q55 0 55 32q0 16 -15 26t-41 10q-23 0 -39.5 -10t-19.5 -26h-91q1 51 43 83.5t107 32.5t108 -32.5t43 -82.5
q0 -48 -42 -71q23 -10 37 -31.5zM602 700h111l-387 -700h-110zM878 148v-85h-43v-63h-98v63h-190l-4 83l167 223h125v-221h43zM647 148h90v120z" />
    <glyph glyph-name="questiondown" unicode="&#xbf;" horiz-adv-x="596" 
d="M382.5 489q25.5 -24 25.5 -61q0 -38 -25.5 -62t-65.5 -24q-39 0 -64.5 24.5t-25.5 61.5t25.5 61t64.5 24q40 0 65.5 -24zM371.5 145.5q-26.5 -38.5 -84.5 -57.5q-45 -14 -66 -33.5t-21 -45.5q0 -34 27 -53.5t74 -19.5q48 0 76.5 23.5t28.5 63.5h160q4 -65 -28 -117
t-93 -81t-140 -29q-83 0 -144.5 26t-94.5 74.5t-33 114.5q0 60 33.5 101t102.5 66q37 14 53 33.5t16 50.5v25h160v-38q0 -65 -26.5 -103.5z" />
    <glyph glyph-name="Agrave" unicode="&#xc0;" horiz-adv-x="787" 
d="M617 0l-52 126h-345l-52 -126h-175l314 700h175l312 -700h-177zM394 543l-115 -276h228zM332 763l-112 144h176l74 -144h-138z" />
    <glyph glyph-name="Aacute" unicode="&#xc1;" horiz-adv-x="787" 
d="M617 0l-52 126h-345l-52 -126h-175l314 700h175l312 -700h-177zM394 543l-115 -276h228zM391 907h176l-112 -144h-138z" />
    <glyph glyph-name="Acircumflex" unicode="&#xc2;" horiz-adv-x="787" 
d="M617 0l-52 126h-345l-52 -126h-175l314 700h175l312 -700h-177zM394 543l-115 -276h228zM587 763h-144l-49 46l-49 -46h-144l140 144h107z" />
    <glyph glyph-name="Atilde" unicode="&#xc3;" horiz-adv-x="787" 
d="M617 0l-52 126h-345l-52 -126h-175l314 700h175l312 -700h-177zM394 543l-115 -276h228zM388 779q-31 17 -51 17q-30 0 -44 -33l-81 55q15 43 45.5 67t68.5 24q36 0 70 -20q28 -17 52 -17q30 0 44 34l80 -52q-14 -47 -43 -71.5t-66 -24.5t-75 21z" />
    <glyph glyph-name="Adieresis" unicode="&#xc4;" horiz-adv-x="787" 
d="M617 0l-52 126h-345l-52 -126h-175l314 700h175l312 -700h-177zM394 543l-115 -276h228zM217.5 782q-24.5 22 -24.5 60t24.5 59.5t59.5 21.5q34 0 59 -21.5t25 -59.5t-25 -60t-59 -22q-35 0 -59.5 22zM451 782q-25 22 -25 60t25 59.5t59 21.5q35 0 59.5 -21.5t24.5 -59.5
t-24.5 -60t-59.5 -22q-34 0 -59 22z" />
    <glyph glyph-name="Aring" unicode="&#xc5;" horiz-adv-x="787" 
d="M565 126h-345l-52 -126h-175l301 671q-40 35 -40 90t39 89.5t100 34.5q62 0 101 -34.5t39 -89.5t-39 -88l300 -673h-177zM362.5 790.5q-11.5 -11.5 -11.5 -29.5q0 -17 11.5 -28.5t30.5 -11.5t30.5 11t11.5 29t-11.5 29.5t-30.5 11.5t-30.5 -11.5zM394 543l-115 -276h228z
" />
    <glyph glyph-name="AE" unicode="&#xc6;" horiz-adv-x="1028" 
d="M645 138h338v-138h-491v126h-257l-81 -126h-184l451 700h551v-137h-327v-142h306v-132h-306v-151zM323 271h169v171l1 103l-64 -108z" />
    <glyph glyph-name="Ccedilla" unicode="&#xc7;" horiz-adv-x="704" 
d="M516.5 -71q26.5 -27 26.5 -70q0 -47 -38 -76.5t-99 -29.5q-42 0 -77 13.5t-58 39.5l53 61q33 -27 73 -27q21 0 33 8t12 22q0 15 -12.5 23.5t-33.5 8.5q-25 0 -35 -7l-30 28l24 64q-97 11 -169 59.5t-111 127t-39 176.5q0 108 47.5 191.5t132.5 129t194 45.5
q155 0 266 -109l-101 -101q-67 64 -161 64q-63 0 -111.5 -27.5t-75 -77.5t-26.5 -115t26.5 -115t75 -77.5t111.5 -27.5q50 0 96 18t80 52l96 -107q-98 -93 -230 -107l-11 -26q45 -4 71.5 -31z" />
    <glyph glyph-name="Egrave" unicode="&#xc8;" horiz-adv-x="666" 
d="M235 138h386v-138h-545v700h534v-137h-375v-142h355v-132h-355v-151zM290 763l-112 144h176l74 -144h-138z" />
    <glyph glyph-name="Eacute" unicode="&#xc9;" horiz-adv-x="666" 
d="M235 138h386v-138h-545v700h534v-137h-375v-142h355v-132h-355v-151zM350 907h176l-112 -144h-138z" />
    <glyph glyph-name="Ecircumflex" unicode="&#xca;" horiz-adv-x="666" 
d="M235 138h386v-138h-545v700h534v-137h-375v-142h355v-132h-355v-151zM545 763h-144l-49 46l-49 -46h-144l140 144h107z" />
    <glyph glyph-name="Edieresis" unicode="&#xcb;" horiz-adv-x="666" 
d="M235 138h386v-138h-545v700h534v-137h-375v-142h355v-132h-355v-151zM176.5 782q-24.5 22 -24.5 60t24.5 59.5t59.5 21.5q34 0 59 -21.5t25 -59.5t-25 -60t-59 -22q-35 0 -59.5 22zM410 782q-25 22 -25 60t25 59.5t59 21.5q35 0 59.5 -21.5t24.5 -59.5t-24.5 -60
t-59.5 -22q-34 0 -59 22z" />
    <glyph glyph-name="Igrave" unicode="&#xcc;" horiz-adv-x="317" 
d="M76 700h164v-700h-164v700zM97 763l-112 144h176l74 -144h-138z" />
    <glyph glyph-name="Iacute" unicode="&#xcd;" horiz-adv-x="317" 
d="M76 700h164v-700h-164v700zM156 907h176l-112 -144h-138z" />
    <glyph glyph-name="Icircumflex" unicode="&#xce;" horiz-adv-x="317" 
d="M76 700h164v-700h-164v700zM350 763h-144l-47 45l-47 -45h-144l134 144h113z" />
    <glyph glyph-name="Idieresis" unicode="&#xcf;" horiz-adv-x="317" 
d="M76 700h164v-700h-164v700zM-17.5 782q-24.5 22 -24.5 60t24.5 59.5t59.5 21.5q34 0 59 -21.5t25 -59.5t-25 -60t-59 -22q-35 0 -59.5 22zM216 782q-25 22 -25 60t25 59.5t59 21.5q35 0 59.5 -21.5t24.5 -59.5t-24.5 -60t-59.5 -22q-34 0 -59 22z" />
    <glyph glyph-name="Eth" unicode="&#xd0;" horiz-adv-x="770" 
d="M563.5 657q81.5 -43 126 -122.5t44.5 -184.5t-44.5 -184.5t-126 -122.5t-189.5 -43h-288v288h-75v127h75v285h288q108 0 189.5 -43zM516.5 198q52.5 57 52.5 152t-52.5 152t-144.5 57h-122v-144h142v-127h-142v-147h122q92 0 144.5 57z" />
    <glyph glyph-name="Ntilde" unicode="&#xd1;" horiz-adv-x="777" 
d="M538 700h163v-700h-147l-317 433l2 -189v-244h-163v700h147l317 -435l-2 187v248zM387 779q-31 17 -51 17q-30 0 -44 -33l-81 55q15 43 45.5 67t68.5 24q36 0 70 -20q28 -17 52 -17q30 0 44 34l80 -52q-14 -47 -43 -71.5t-66 -24.5t-75 21z" />
    <glyph glyph-name="Ograve" unicode="&#xd2;" horiz-adv-x="826" 
d="M214.5 28.5q-85.5 45.5 -132 128.5t-46.5 193t46.5 193t132 128.5t198.5 45.5t198.5 -45.5t132 -128.5t46.5 -193t-46.5 -193t-132 -128.5t-198.5 -45.5t-198.5 45.5zM524.5 156.5q48.5 27.5 75 77.5t26.5 116t-26.5 116t-75 77.5t-111.5 27.5t-111 -27.5t-74.5 -77.5
t-26.5 -116t26.5 -116t74.5 -77.5t111 -27.5t111.5 27.5zM351 763l-112 144h176l74 -144h-138z" />
    <glyph glyph-name="Oacute" unicode="&#xd3;" horiz-adv-x="826" 
d="M214.5 28.5q-85.5 45.5 -132 128.5t-46.5 193t46.5 193t132 128.5t198.5 45.5t198.5 -45.5t132 -128.5t46.5 -193t-46.5 -193t-132 -128.5t-198.5 -45.5t-198.5 45.5zM524.5 156.5q48.5 27.5 75 77.5t26.5 116t-26.5 116t-75 77.5t-111.5 27.5t-111 -27.5t-74.5 -77.5
t-26.5 -116t26.5 -116t74.5 -77.5t111 -27.5t111.5 27.5zM411 907h176l-112 -144h-138z" />
    <glyph glyph-name="Ocircumflex" unicode="&#xd4;" horiz-adv-x="826" 
d="M214.5 28.5q-85.5 45.5 -132 128.5t-46.5 193t46.5 193t132 128.5t198.5 45.5t198.5 -45.5t132 -128.5t46.5 -193t-46.5 -193t-132 -128.5t-198.5 -45.5t-198.5 45.5zM524.5 156.5q48.5 27.5 75 77.5t26.5 116t-26.5 116t-75 77.5t-111.5 27.5t-111 -27.5t-74.5 -77.5
t-26.5 -116t26.5 -116t74.5 -77.5t111 -27.5t111.5 27.5zM606 763h-144l-49 46l-49 -46h-144l140 144h107z" />
    <glyph glyph-name="Otilde" unicode="&#xd5;" horiz-adv-x="826" 
d="M214.5 28.5q-85.5 45.5 -132 128.5t-46.5 193t46.5 193t132 128.5t198.5 45.5t198.5 -45.5t132 -128.5t46.5 -193t-46.5 -193t-132 -128.5t-198.5 -45.5t-198.5 45.5zM524.5 156.5q48.5 27.5 75 77.5t26.5 116t-26.5 116t-75 77.5t-111.5 27.5t-111 -27.5t-74.5 -77.5
t-26.5 -116t26.5 -116t74.5 -77.5t111 -27.5t111.5 27.5zM408 779q-31 17 -51 17q-30 0 -44 -33l-81 55q15 43 45.5 67t68.5 24q36 0 70 -20q28 -17 52 -17q30 0 44 34l80 -52q-14 -47 -43 -71.5t-66 -24.5t-75 21z" />
    <glyph glyph-name="Odieresis" unicode="&#xd6;" horiz-adv-x="826" 
d="M214.5 28.5q-85.5 45.5 -132 128.5t-46.5 193t46.5 193t132 128.5t198.5 45.5t198.5 -45.5t132 -128.5t46.5 -193t-46.5 -193t-132 -128.5t-198.5 -45.5t-198.5 45.5zM524.5 156.5q48.5 27.5 75 77.5t26.5 116t-26.5 116t-75 77.5t-111.5 27.5t-111 -27.5t-74.5 -77.5
t-26.5 -116t26.5 -116t74.5 -77.5t111 -27.5t111.5 27.5zM237.5 782q-24.5 22 -24.5 60t24.5 59.5t59.5 21.5q34 0 59 -21.5t25 -59.5t-25 -60t-59 -22q-35 0 -59.5 22zM471 782q-25 22 -25 60t25 59.5t59 21.5q35 0 59.5 -21.5t24.5 -59.5t-24.5 -60t-59.5 -22
q-34 0 -59 22z" />
    <glyph glyph-name="multiply" unicode="&#xd7;" horiz-adv-x="467" 
d="M420 408l-93 -94l93 -94l-95 -93l-91 92l-92 -92l-95 93l93 94l-93 94l95 94l92 -93l91 93z" />
    <glyph glyph-name="Oslash" unicode="&#xd8;" horiz-adv-x="830" 
d="M761.5 514q32.5 -73 32.5 -164q0 -110 -47 -193t-132.5 -128.5t-199.5 -45.5q-80 0 -143 22l-47 -76h-147l84 134q-61 48 -93.5 122t-32.5 165q0 110 47 193t133 128.5t199 45.5q75 0 143 -22l48 76h148l-86 -135q61 -49 93.5 -122zM300.5 547q-49.5 -28 -77 -79
t-27.5 -118q0 -46 13.5 -85t37.5 -68l232 370q-32 8 -64 8q-65 0 -114.5 -28zM530 153q50 28 77 79t27 118q0 92 -50 153l-232 -370q30 -8 63 -8q65 0 115 28z" />
    <glyph glyph-name="Ugrave" unicode="&#xd9;" horiz-adv-x="766" 
d="M148.5 68.5q-83.5 83.5 -83.5 233.5v398h164v-398q0 -80 40.5 -126t113.5 -46q71 0 112 46t41 126v398h164v-398q0 -150 -83 -233.5t-234 -83.5t-234.5 83.5zM321 763l-112 144h176l74 -144h-138z" />
    <glyph glyph-name="Uacute" unicode="&#xda;" horiz-adv-x="766" 
d="M148.5 68.5q-83.5 83.5 -83.5 233.5v398h164v-398q0 -80 40.5 -126t113.5 -46q71 0 112 46t41 126v398h164v-398q0 -150 -83 -233.5t-234 -83.5t-234.5 83.5zM380 907h176l-112 -144h-138z" />
    <glyph glyph-name="Ucircumflex" unicode="&#xdb;" horiz-adv-x="766" 
d="M148.5 68.5q-83.5 83.5 -83.5 233.5v398h164v-398q0 -80 40.5 -126t113.5 -46q71 0 112 46t41 126v398h164v-398q0 -150 -83 -233.5t-234 -83.5t-234.5 83.5zM576 763h-144l-49 46l-49 -46h-144l140 144h107z" />
    <glyph glyph-name="Udieresis" unicode="&#xdc;" horiz-adv-x="766" 
d="M148.5 68.5q-83.5 83.5 -83.5 233.5v398h164v-398q0 -80 40.5 -126t113.5 -46q71 0 112 46t41 126v398h164v-398q0 -150 -83 -233.5t-234 -83.5t-234.5 83.5zM206.5 782q-24.5 22 -24.5 60t24.5 59.5t59.5 21.5q34 0 59 -21.5t25 -59.5t-25 -60t-59 -22q-35 0 -59.5 22z
M440 782q-25 22 -25 60t25 59.5t59 21.5q35 0 59.5 -21.5t24.5 -59.5t-24.5 -60t-59.5 -22q-34 0 -59 22z" />
    <glyph glyph-name="Yacute" unicode="&#xdd;" horiz-adv-x="710" 
d="M717 700l-285 -426v-274h-163v274l-275 426h192l166 -272l170 272h195zM352 907h176l-112 -144h-138z" />
    <glyph glyph-name="Thorn" unicode="&#xde;" horiz-adv-x="698" 
d="M552.5 572q60.5 -31 93.5 -88t33 -133t-33 -133t-93.5 -88t-141.5 -31h-171v-99h-164v700h164v-97h171q81 0 141.5 -31zM486 273.5q30 29.5 30 77.5t-30 77.5t-81 29.5h-166v-214h166q51 0 81 29.5z" />
    <glyph glyph-name="germandbls" unicode="&#xdf;" horiz-adv-x="620" 
d="M556 314q34 -49 34 -117q0 -98 -61.5 -153t-172.5 -55q-32 0 -86 9v139q30 -9 60 -9q50 0 77 23.5t27 68.5q0 46 -31.5 69.5t-92.5 23.5h-32v129h25q42 0 65 17.5t23 47.5q0 31 -23.5 49t-63.5 18q-88 0 -88 -88v-486h-157v502q0 99 63.5 153.5t179.5 54.5
q72 0 126.5 -23t84 -65.5t29.5 -97.5q0 -48 -21.5 -85t-59.5 -55q61 -21 95 -70z" />
    <glyph glyph-name="agrave" unicode="&#xe0;" horiz-adv-x="636" 
d="M577 494v-494h-136l-10 59q-63 -69 -164 -69q-69 0 -122.5 32.5t-83.5 91t-30 133.5t30 133.5t83.5 91t122.5 32.5q50 0 92 -17.5t72 -50.5l10 58h136zM389 156.5q33 34.5 33 90.5t-33 90.5t-85 34.5t-84.5 -35t-32.5 -90t32.5 -90t84.5 -35t85 34.5zM266 552l-105 148
h169l67 -148h-131z" />
    <glyph glyph-name="aacute" unicode="&#xe1;" horiz-adv-x="636" 
d="M577 494v-494h-136l-10 59q-63 -69 -164 -69q-69 0 -122.5 32.5t-83.5 91t-30 133.5t30 133.5t83.5 91t122.5 32.5q50 0 92 -17.5t72 -50.5l10 58h136zM389 156.5q33 34.5 33 90.5t-33 90.5t-85 34.5t-84.5 -35t-32.5 -90t32.5 -90t84.5 -35t85 34.5zM311 700h169
l-105 -148h-131z" />
    <glyph glyph-name="acircumflex" unicode="&#xe2;" horiz-adv-x="636" 
d="M577 494v-494h-136l-10 59q-63 -69 -164 -69q-69 0 -122.5 32.5t-83.5 91t-30 133.5t30 133.5t83.5 91t122.5 32.5q50 0 92 -17.5t72 -50.5l10 58h136zM389 156.5q33 34.5 33 90.5t-33 90.5t-85 34.5t-84.5 -35t-32.5 -90t32.5 -90t84.5 -35t85 34.5zM519 550h-141
l-58 53l-56 -53h-141l149 150h97z" />
    <glyph glyph-name="atilde" unicode="&#xe3;" horiz-adv-x="636" 
d="M577 494v-494h-136l-10 59q-63 -69 -164 -69q-69 0 -122.5 32.5t-83.5 91t-30 133.5t30 133.5t83.5 91t122.5 32.5q50 0 92 -17.5t72 -50.5l10 58h136zM389 156.5q33 34.5 33 90.5t-33 90.5t-85 34.5t-84.5 -35t-32.5 -90t32.5 -90t84.5 -35t85 34.5zM315 577
q-31 17 -49 17q-30 0 -44 -33l-81 55q15 43 45.5 67t68.5 24q34 0 68 -20q24 -17 50 -17q30 0 44 34l80 -52q-14 -48 -42.5 -72t-66.5 -24q-35 0 -73 21z" />
    <glyph glyph-name="adieresis" unicode="&#xe4;" horiz-adv-x="636" 
d="M577 494v-494h-136l-10 59q-63 -69 -164 -69q-69 0 -122.5 32.5t-83.5 91t-30 133.5t30 133.5t83.5 91t122.5 32.5q50 0 92 -17.5t72 -50.5l10 58h136zM389 156.5q33 34.5 33 90.5t-33 90.5t-85 34.5t-84.5 -35t-32.5 -90t32.5 -90t84.5 -35t85 34.5zM153.5 574.5
q-23.5 20.5 -23.5 57.5q0 36 24 56.5t56 20.5q33 0 56.5 -20.5t23.5 -56.5q0 -37 -23.5 -57.5t-56.5 -20.5t-56.5 20.5zM375.5 574.5q-23.5 20.5 -23.5 57.5q0 36 24 56.5t56 20.5q33 0 57 -20.5t24 -56.5q0 -37 -24 -57.5t-57 -20.5t-56.5 20.5z" />
    <glyph glyph-name="aring" unicode="&#xe5;" horiz-adv-x="636" 
d="M577 494v-494h-136l-10 59q-63 -69 -164 -69q-69 0 -122.5 32.5t-83.5 91t-30 133.5t30 133.5t83.5 91t122.5 32.5q50 0 92 -17.5t72 -50.5l10 58h136zM389 156.5q33 34.5 33 90.5t-33 90.5t-85 34.5t-84.5 -35t-32.5 -90t32.5 -90t84.5 -35t85 34.5zM220 573.5
q-39 34.5 -39 88.5q0 55 39 89.5t100 34.5q62 0 101 -34.5t39 -89.5q0 -54 -39 -88.5t-101 -34.5q-61 0 -100 34.5zM350.5 633q11.5 11 11.5 29t-11.5 29.5t-30.5 11.5t-30.5 -11.5t-11.5 -29.5q0 -17 11.5 -28.5t30.5 -11.5t30.5 11z" />
    <glyph glyph-name="ae" unicode="&#xe6;" horiz-adv-x="979" 
d="M842.5 474q52.5 -30 81 -85t28.5 -127q0 -30 -6 -65h-355q8 -37 42 -58.5t86 -21.5q38 0 72 11t57 31l83 -89q-40 -38 -95 -59t-115 -21q-105 0 -163 63l-7 -53h-124l-5 54q-62 -64 -157 -64q-68 0 -121 32.5t-83 91t-30 133.5t30 133.5t83 91t121 32.5q97 0 159 -65
l6 55h121l7 -53q61 63 162 63q70 0 122.5 -30zM627 363q-29 -23 -36 -63h218q-1 38 -30.5 62t-76.5 24q-46 0 -75 -23zM385 157q32 35 32 90t-32 90t-83 35t-83 -35t-32 -90t32 -90t83 -35t83 35z" />
    <glyph glyph-name="ccedilla" unicode="&#xe7;" horiz-adv-x="518" 
d="M398.5 -70q26.5 -27 26.5 -71q0 -47 -37.5 -76.5t-98.5 -29.5q-42 0 -77 13.5t-57 38.5l53 61q32 -27 72 -27q20 0 32 8.5t12 22.5q0 15 -12 24t-33 9t-35 -8l-30 28l27 71q-98 17 -154 83.5t-56 168.5q0 77 34 135.5t95 91t141 32.5q55 0 105 -19.5t89 -57.5l-87 -95
q-42 39 -99 39q-54 0 -88 -34.5t-34 -90.5t33.5 -90.5t88.5 -34.5q61 0 104 43l89 -94q-71 -70 -162 -80l-13 -31q45 -3 71.5 -30z" />
    <glyph glyph-name="egrave" unicode="&#xe8;" horiz-adv-x="587" 
d="M437 474.5q59 -30.5 90.5 -86t31.5 -129.5q0 -24 -5 -59h-363q7 -38 41 -61.5t87 -23.5q37 0 72 11t60 31l82 -88q-42 -39 -99.5 -60t-122.5 -21q-86 0 -149 31.5t-97 89.5t-34 137q0 76 33.5 135t93.5 91.5t139 32.5q81 0 140 -30.5zM225.5 357q-29.5 -24 -33.5 -67h218
q-3 43 -31.5 67t-76.5 24q-47 0 -76.5 -24zM244 552l-105 148h169l67 -148h-131z" />
    <glyph glyph-name="eacute" unicode="&#xe9;" horiz-adv-x="587" 
d="M437 474.5q59 -30.5 90.5 -86t31.5 -129.5q0 -24 -5 -59h-363q7 -38 41 -61.5t87 -23.5q37 0 72 11t60 31l82 -88q-42 -39 -99.5 -60t-122.5 -21q-86 0 -149 31.5t-97 89.5t-34 137q0 76 33.5 135t93.5 91.5t139 32.5q81 0 140 -30.5zM225.5 357q-29.5 -24 -33.5 -67h218
q-3 43 -31.5 67t-76.5 24q-47 0 -76.5 -24zM289 700h169l-105 -148h-131z" />
    <glyph glyph-name="ecircumflex" unicode="&#xea;" horiz-adv-x="587" 
d="M437 474.5q59 -30.5 90.5 -86t31.5 -129.5q0 -24 -5 -59h-363q7 -38 41 -61.5t87 -23.5q37 0 72 11t60 31l82 -88q-42 -39 -99.5 -60t-122.5 -21q-86 0 -149 31.5t-97 89.5t-34 137q0 76 33.5 135t93.5 91.5t139 32.5q81 0 140 -30.5zM225.5 357q-29.5 -24 -33.5 -67h218
q-3 43 -31.5 67t-76.5 24q-47 0 -76.5 -24zM496 550h-141l-58 53l-56 -53h-141l149 150h97z" />
    <glyph glyph-name="edieresis" unicode="&#xeb;" horiz-adv-x="587" 
d="M437 474.5q59 -30.5 90.5 -86t31.5 -129.5q0 -24 -5 -59h-363q7 -38 41 -61.5t87 -23.5q37 0 72 11t60 31l82 -88q-42 -39 -99.5 -60t-122.5 -21q-86 0 -149 31.5t-97 89.5t-34 137q0 76 33.5 135t93.5 91.5t139 32.5q81 0 140 -30.5zM225.5 357q-29.5 -24 -33.5 -67h218
q-3 43 -31.5 67t-76.5 24q-47 0 -76.5 -24zM130.5 574.5q-23.5 20.5 -23.5 57.5q0 36 24 56.5t56 20.5q33 0 56.5 -20.5t23.5 -56.5q0 -37 -23.5 -57.5t-56.5 -20.5t-56.5 20.5zM352.5 574.5q-23.5 20.5 -23.5 57.5q0 36 24 56.5t56 20.5q33 0 57 -20.5t24 -56.5
q0 -37 -24 -57.5t-57 -20.5t-56.5 20.5z" />
    <glyph glyph-name="igrave" unicode="&#xec;" horiz-adv-x="275" 
d="M59 494h157v-494h-157v494zM81 552l-88 148h169l51 -148h-132z" />
    <glyph glyph-name="iacute" unicode="&#xed;" horiz-adv-x="275" 
d="M59 494h157v-494h-157v494zM113 700h169l-88 -148h-132z" />
    <glyph glyph-name="icircumflex" unicode="&#xee;" horiz-adv-x="275" 
d="M59 494h157v-494h-157v494zM323 550h-139l-47 53l-46 -53h-139l135 150h102z" />
    <glyph glyph-name="idieresis" unicode="&#xef;" horiz-adv-x="275" 
d="M59 494h157v-494h-157v494zM-22 575q-23 21 -23 57q0 35 23 56t54 21q32 0 54.5 -21t22.5 -56q0 -36 -22.5 -57t-54.5 -21q-31 0 -54 21zM187.5 575q-22.5 21 -22.5 57q0 35 22.5 56t54.5 21t54.5 -21t22.5 -56q0 -36 -22.5 -57t-54.5 -21t-54.5 21z" />
    <glyph glyph-name="eth" unicode="&#xf0;" horiz-adv-x="586" 
d="M511.5 450.5q41.5 -92.5 41.5 -203.5q0 -77 -32.5 -135.5t-91.5 -90.5t-137 -32t-137 30.5t-91.5 87t-32.5 130.5q0 71 30 126t84.5 85.5t125.5 30.5q46 0 78 -17q-32 44 -88.5 76.5t-122.5 43.5l26 116q78 -10 137 -37l45 54l87 -66l-39 -45q76 -61 117.5 -153.5z
M369.5 152q30.5 33 30.5 85q0 51 -30.5 84t-77.5 33t-77.5 -33t-30.5 -84q0 -52 30.5 -85t77.5 -33t77.5 33z" />
    <glyph glyph-name="ntilde" unicode="&#xf1;" horiz-adv-x="618" 
d="M510.5 445q54.5 -60 54.5 -166v-279h-157v270q0 48 -24 75t-66 27q-46 0 -74 -31t-28 -81v-260h-157v494h136l10 -58q29 33 69.5 51t89.5 18q92 0 146.5 -60zM323 577q-31 17 -49 17q-30 0 -44 -33l-81 55q15 43 45.5 67t68.5 24q34 0 68 -20q24 -17 50 -17q30 0 44 34
l80 -52q-14 -48 -42.5 -72t-66.5 -24q-35 0 -73 21z" />
    <glyph glyph-name="ograve" unicode="&#xf2;" horiz-adv-x="605" 
d="M158.5 21.5q-61.5 32.5 -94.5 90.5t-33 135t33 135t94.5 90.5t143.5 32.5t144 -32.5t95 -90.5t33 -135t-33 -135t-95 -90.5t-144 -32.5t-143.5 32.5zM386 157q32 35 32 90t-32 90t-84 35q-51 0 -83 -35t-32 -90t32 -90t83 -35q52 0 84 35zM248 552l-105 148h169l67 -148
h-131z" />
    <glyph glyph-name="oacute" unicode="&#xf3;" horiz-adv-x="605" 
d="M158.5 21.5q-61.5 32.5 -94.5 90.5t-33 135t33 135t94.5 90.5t143.5 32.5t144 -32.5t95 -90.5t33 -135t-33 -135t-95 -90.5t-144 -32.5t-143.5 32.5zM386 157q32 35 32 90t-32 90t-84 35q-51 0 -83 -35t-32 -90t32 -90t83 -35q52 0 84 35zM293 700h169l-105 -148h-131z
" />
    <glyph glyph-name="ocircumflex" unicode="&#xf4;" horiz-adv-x="605" 
d="M158.5 21.5q-61.5 32.5 -94.5 90.5t-33 135t33 135t94.5 90.5t143.5 32.5t144 -32.5t95 -90.5t33 -135t-33 -135t-95 -90.5t-144 -32.5t-143.5 32.5zM386 157q32 35 32 90t-32 90t-84 35q-51 0 -83 -35t-32 -90t32 -90t83 -35q52 0 84 35zM501 550h-141l-58 53l-56 -53
h-141l149 150h97z" />
    <glyph glyph-name="otilde" unicode="&#xf5;" horiz-adv-x="605" 
d="M158.5 21.5q-61.5 32.5 -94.5 90.5t-33 135t33 135t94.5 90.5t143.5 32.5t144 -32.5t95 -90.5t33 -135t-33 -135t-95 -90.5t-144 -32.5t-143.5 32.5zM386 157q32 35 32 90t-32 90t-84 35q-51 0 -83 -35t-32 -90t32 -90t83 -35q52 0 84 35zM297 577q-31 17 -49 17
q-30 0 -44 -33l-81 55q15 43 45.5 67t68.5 24q34 0 68 -20q24 -17 50 -17q30 0 44 34l80 -52q-14 -48 -42.5 -72t-66.5 -24q-35 0 -73 21z" />
    <glyph glyph-name="odieresis" unicode="&#xf6;" horiz-adv-x="605" 
d="M158.5 21.5q-61.5 32.5 -94.5 90.5t-33 135t33 135t94.5 90.5t143.5 32.5t144 -32.5t95 -90.5t33 -135t-33 -135t-95 -90.5t-144 -32.5t-143.5 32.5zM386 157q32 35 32 90t-32 90t-84 35q-51 0 -83 -35t-32 -90t32 -90t83 -35q52 0 84 35zM134.5 574.5
q-23.5 20.5 -23.5 57.5q0 36 24 56.5t56 20.5q33 0 56.5 -20.5t23.5 -56.5q0 -37 -23.5 -57.5t-56.5 -20.5t-56.5 20.5zM356.5 574.5q-23.5 20.5 -23.5 57.5q0 36 24 56.5t56 20.5q33 0 57 -20.5t24 -56.5q0 -37 -24 -57.5t-57 -20.5t-56.5 20.5z" />
    <glyph glyph-name="divide" unicode="&#xf7;" horiz-adv-x="570" 
d="M223 463q-25 22 -25 57q0 36 24.5 58t62.5 22t62.5 -22t24.5 -58q0 -35 -25 -57t-62 -22t-62 22zM58 394h455v-128h-455v128zM222.5 78q-24.5 22 -24.5 58q0 35 25 57t62 22t62 -22t25 -57q0 -36 -24.5 -58t-62.5 -22t-62.5 22z" />
    <glyph glyph-name="oslash" unicode="&#xf8;" horiz-adv-x="601" 
d="M545 366.5q25 -53.5 25 -119.5q0 -77 -33 -135t-94.5 -90.5t-142.5 -32.5q-49 0 -91 12l-36 -62h-104l59 101q-47 34 -72 87t-25 120q0 76 33 134.5t94 91t142 32.5q53 0 93 -13l36 61h103l-59 -99q47 -34 72 -87.5zM218.5 337q-31.5 -35 -31.5 -90q0 -41 19 -74l116 197
q-14 2 -22 2q-50 0 -81.5 -35zM382.5 157q31.5 35 31.5 90q0 41 -19 73l-115 -196q14 -2 20 -2q51 0 82.5 35z" />
    <glyph glyph-name="ugrave" unicode="&#xf9;" 
d="M555 494v-494h-136l-10 57q-28 -33 -68.5 -50.5t-88.5 -17.5q-91 0 -145 60t-54 166v279h157v-270q0 -48 23.5 -75t64.5 -27q45 0 72.5 31.5t27.5 81.5v259h157zM250 552l-105 148h169l67 -148h-131z" />
    <glyph glyph-name="uacute" unicode="&#xfa;" 
d="M555 494v-494h-136l-10 57q-28 -33 -68.5 -50.5t-88.5 -17.5q-91 0 -145 60t-54 166v279h157v-270q0 -48 23.5 -75t64.5 -27q45 0 72.5 31.5t27.5 81.5v259h157zM295 700h169l-105 -148h-131z" />
    <glyph glyph-name="ucircumflex" unicode="&#xfb;" 
d="M555 494v-494h-136l-10 57q-28 -33 -68.5 -50.5t-88.5 -17.5q-91 0 -145 60t-54 166v279h157v-270q0 -48 23.5 -75t64.5 -27q45 0 72.5 31.5t27.5 81.5v259h157zM503 550h-141l-58 53l-56 -53h-141l149 150h97z" />
    <glyph glyph-name="udieresis" unicode="&#xfc;" 
d="M555 494v-494h-136l-10 57q-28 -33 -68.5 -50.5t-88.5 -17.5q-91 0 -145 60t-54 166v279h157v-270q0 -48 23.5 -75t64.5 -27q45 0 72.5 31.5t27.5 81.5v259h157zM136.5 574.5q-23.5 20.5 -23.5 57.5q0 36 24 56.5t56 20.5q33 0 56.5 -20.5t23.5 -56.5q0 -37 -23.5 -57.5
t-56.5 -20.5t-56.5 20.5zM358.5 574.5q-23.5 20.5 -23.5 57.5q0 36 24 56.5t56 20.5q33 0 57 -20.5t24 -56.5q0 -37 -24 -57.5t-57 -20.5t-56.5 20.5z" />
    <glyph glyph-name="yacute" unicode="&#xfd;" horiz-adv-x="575" 
d="M403 494h170l-308 -708h-167l96 221l-192 487h169l57 -156l54 -161l58 161zM277 700h169l-105 -148h-131z" />
    <glyph glyph-name="thorn" unicode="&#xfe;" horiz-adv-x="635" 
d="M489 471.5q54 -32.5 84.5 -91t30.5 -133.5t-30.5 -133.5t-84.5 -91t-124 -32.5q-96 0 -149 59v-263h-157v914h157v-255q53 59 149 59q70 0 124 -32.5zM416 156.5q33 34.5 33 90.5t-33 90.5t-85 34.5t-85 -34.5t-33 -90.5t33 -90.5t85 -34.5t85 34.5z" />
    <glyph glyph-name="ydieresis" unicode="&#xff;" horiz-adv-x="575" 
d="M403 494h170l-308 -708h-167l96 221l-192 487h169l57 -156l54 -161l58 161zM118.5 574.5q-23.5 20.5 -23.5 57.5q0 36 24 56.5t56 20.5q33 0 56.5 -20.5t23.5 -56.5q0 -37 -23.5 -57.5t-56.5 -20.5t-56.5 20.5zM340.5 574.5q-23.5 20.5 -23.5 57.5q0 36 24 56.5t56 20.5
q33 0 57 -20.5t24 -56.5q0 -37 -24 -57.5t-57 -20.5t-56.5 20.5z" />
    <glyph glyph-name="Amacron" unicode="&#x100;" horiz-adv-x="787" 
d="M617 0l-52 126h-345l-52 -126h-175l314 700h175l312 -700h-177zM394 543l-115 -276h228zM229 885h329v-113h-329v113z" />
    <glyph glyph-name="amacron" unicode="&#x101;" horiz-adv-x="636" 
d="M577 494v-494h-136l-10 59q-63 -69 -164 -69q-69 0 -122.5 32.5t-83.5 91t-30 133.5t30 133.5t83.5 91t122.5 32.5q50 0 92 -17.5t72 -50.5l10 58h136zM389 156.5q33 34.5 33 90.5t-33 90.5t-85 34.5t-84.5 -35t-32.5 -90t32.5 -90t84.5 -35t85 34.5zM171 679h300v-113
h-300v113z" />
    <glyph glyph-name="Abreve" unicode="&#x102;" horiz-adv-x="787" 
d="M617 0l-52 126h-345l-52 -126h-175l314 700h175l312 -700h-177zM394 543l-115 -276h228zM272 799.5q-44 39.5 -44 109.5h118q0 -22 13 -35t34 -13q22 0 35 13t13 35h117q0 -70 -44 -109.5t-121 -39.5t-121 39.5z" />
    <glyph glyph-name="abreve" unicode="&#x103;" horiz-adv-x="636" 
d="M577 494v-494h-136l-10 59q-63 -69 -164 -69q-69 0 -122.5 32.5t-83.5 91t-30 133.5t30 133.5t83.5 91t122.5 32.5q50 0 92 -17.5t72 -50.5l10 58h136zM389 156.5q33 34.5 33 90.5t-33 90.5t-85 34.5t-84.5 -35t-32.5 -90t32.5 -90t84.5 -35t85 34.5zM200 590.5
q-44 39.5 -44 109.5h118q0 -22 13 -35t34 -13q22 0 35 13t13 35h117q0 -70 -44 -109.5t-121 -39.5t-121 39.5z" />
    <glyph glyph-name="Aogonek" unicode="&#x104;" horiz-adv-x="787" 
d="M840 -156q-27 -24 -57 -34.5t-67 -10.5q-52 0 -81.5 26t-29.5 72q0 57 49 103h-37l-52 126h-345l-52 -126h-175l314 700h175l312 -700q-62 -35 -62 -66q0 -11 7 -17.5t20 -6.5q18 0 34 11zM394 543l-115 -276h228z" />
    <glyph glyph-name="aogonek" unicode="&#x105;" horiz-adv-x="636" 
d="M624 -141q-53 -47 -125 -47q-50 0 -78.5 24t-28.5 66q0 56 49 99l-10 58q-63 -69 -164 -69q-69 0 -122.5 32.5t-83.5 91t-30 133.5t30 133.5t83.5 91t122.5 32.5q50 0 92 -17.5t72 -50.5l10 58h136v-493l1 -1q-69 -31 -69 -62q0 -11 8 -18.5t21 -7.5q10 0 21.5 4.5
t20.5 11.5zM389 156.5q33 34.5 33 90.5t-33 90.5t-85 34.5t-84.5 -35t-32.5 -90t32.5 -90t84.5 -35t85 34.5z" />
    <glyph glyph-name="Cacute" unicode="&#x106;" horiz-adv-x="704" 
d="M214.5 30q-85.5 46 -132 129t-46.5 191t47.5 191.5t132.5 129t194 45.5q155 0 266 -109l-101 -101q-67 64 -161 64q-63 0 -111.5 -27.5t-75 -77.5t-26.5 -115t26.5 -115t75 -77.5t111.5 -27.5q50 0 96 18t80 52l96 -107q-113 -109 -273 -109q-113 0 -198.5 46zM394 907
h176l-112 -144h-138z" />
    <glyph glyph-name="cacute" unicode="&#x107;" horiz-adv-x="518" 
d="M159.5 20.5q-61.5 31.5 -95 89.5t-33.5 136q0 77 34 135.5t95 91t141 32.5q55 0 105 -19.5t89 -57.5l-87 -95q-42 39 -99 39q-54 0 -88 -34.5t-34 -90.5t33.5 -90.5t88.5 -34.5q61 0 104 43l89 -94q-83 -82 -198 -82q-83 0 -144.5 31.5zM282 700h169l-105 -148h-131z" />
    <glyph glyph-name="Ccircumflex" unicode="&#x108;" horiz-adv-x="704" 
d="M214.5 30q-85.5 46 -132 129t-46.5 191t47.5 191.5t132.5 129t194 45.5q155 0 266 -109l-101 -101q-67 64 -161 64q-63 0 -111.5 -27.5t-75 -77.5t-26.5 -115t26.5 -115t75 -77.5t111.5 -27.5q50 0 96 18t80 52l96 -107q-113 -109 -273 -109q-113 0 -198.5 46zM590 763
h-144l-49 46l-49 -46h-144l140 144h107z" />
    <glyph glyph-name="ccircumflex" unicode="&#x109;" horiz-adv-x="518" 
d="M159.5 20.5q-61.5 31.5 -95 89.5t-33.5 136q0 77 34 135.5t95 91t141 32.5q55 0 105 -19.5t89 -57.5l-87 -95q-42 39 -99 39q-54 0 -88 -34.5t-34 -90.5t33.5 -90.5t88.5 -34.5q61 0 104 43l89 -94q-83 -82 -198 -82q-83 0 -144.5 31.5zM489 550h-141l-58 53l-56 -53
h-141l149 150h97z" />
    <glyph glyph-name="Cdotaccent" unicode="&#x10a;" horiz-adv-x="704" 
d="M214.5 30q-85.5 46 -132 129t-46.5 191t47.5 191.5t132.5 129t194 45.5q155 0 266 -109l-101 -101q-67 64 -161 64q-63 0 -111.5 -27.5t-75 -77.5t-26.5 -115t26.5 -115t75 -77.5t111.5 -27.5q50 0 96 18t80 52l96 -107q-113 -109 -273 -109q-113 0 -198.5 46zM334.5 780
q-24.5 23 -24.5 58q0 36 24.5 58.5t62.5 22.5t62.5 -22.5t24.5 -58.5q0 -35 -24.5 -58t-62.5 -23t-62.5 23z" />
    <glyph glyph-name="cdotaccent" unicode="&#x10b;" horiz-adv-x="518" 
d="M159.5 20.5q-61.5 31.5 -95 89.5t-33.5 136q0 77 34 135.5t95 91t141 32.5q55 0 105 -19.5t89 -57.5l-87 -95q-42 39 -99 39q-54 0 -88 -34.5t-34 -90.5t33.5 -90.5t88.5 -34.5q61 0 104 43l89 -94q-83 -82 -198 -82q-83 0 -144.5 31.5zM230 576q-24 22 -24 56t24 56
t61 22t60.5 -22t23.5 -56t-23.5 -56t-60.5 -22t-61 22z" />
    <glyph glyph-name="Ccaron" unicode="&#x10c;" horiz-adv-x="704" 
d="M214.5 30q-85.5 46 -132 129t-46.5 191t47.5 191.5t132.5 129t194 45.5q155 0 266 -109l-101 -101q-67 64 -161 64q-63 0 -111.5 -27.5t-75 -77.5t-26.5 -115t26.5 -115t75 -77.5t111.5 -27.5q50 0 96 18t80 52l96 -107q-113 -109 -273 -109q-113 0 -198.5 46zM446 910
h144l-139 -144h-107l-140 144h144l49 -46z" />
    <glyph glyph-name="ccaron" unicode="&#x10d;" horiz-adv-x="518" 
d="M159.5 20.5q-61.5 31.5 -95 89.5t-33.5 136q0 77 34 135.5t95 91t141 32.5q55 0 105 -19.5t89 -57.5l-87 -95q-42 39 -99 39q-54 0 -88 -34.5t-34 -90.5t33.5 -90.5t88.5 -34.5q61 0 104 43l89 -94q-83 -82 -198 -82q-83 0 -144.5 31.5zM348 700h141l-150 -150h-97
l-149 150h141l56 -53z" />
    <glyph glyph-name="Dcaron" unicode="&#x10e;" horiz-adv-x="759" 
d="M552.5 657q81.5 -43 126 -122.5t44.5 -184.5t-44.5 -184.5t-126 -122.5t-189.5 -43h-287v700h287q108 0 189.5 -43zM505 199q54 56 54 151q0 63 -24.5 109.5t-69 72t-102.5 25.5h-123v-414h123q88 0 142 56zM394 910h144l-139 -144h-107l-140 144h144l49 -46z" />
    <glyph glyph-name="dcaron" unicode="&#x10f;" horiz-adv-x="711" 
d="M420 700h157v-700h-136l-10 59q-63 -69 -164 -69q-69 0 -122.5 32.5t-83.5 91t-30 133.5t30 133.5t83.5 91t122.5 32.5q91 0 153 -57v253zM650 700h132l-73 -210h-104zM389 156.5q33 34.5 33 90.5t-33 90.5t-85 34.5t-84.5 -35t-32.5 -90t32.5 -90t84.5 -35t85 34.5z" />
    <glyph glyph-name="Dcroat" unicode="&#x110;" horiz-adv-x="770" 
d="M563.5 657q81.5 -43 126 -122.5t44.5 -184.5t-44.5 -184.5t-126 -122.5t-189.5 -43h-288v288h-75v127h75v285h288q108 0 189.5 -43zM516.5 198q52.5 57 52.5 152t-52.5 152t-144.5 57h-122v-144h142v-127h-142v-147h122q92 0 144.5 57z" />
    <glyph glyph-name="dcroat" unicode="&#x111;" horiz-adv-x="639" 
d="M643 552h-63v-552h-136l-10 59q-63 -69 -164 -69q-69 0 -122.5 32.5t-83.5 91t-30 133.5t30 133.5t83.5 91t122.5 32.5q91 0 153 -57v105h-90v92h90v56h157v-56h63v-92zM392 156.5q33 34.5 33 90.5t-33 90.5t-85 34.5t-85 -35t-33 -90t33 -90t85 -35t85 34.5z" />
    <glyph glyph-name="Emacron" unicode="&#x112;" horiz-adv-x="666" 
d="M235 138h386v-138h-545v700h534v-137h-375v-142h355v-132h-355v-151zM187 885h329v-113h-329v113z" />
    <glyph glyph-name="emacron" unicode="&#x113;" horiz-adv-x="587" 
d="M437 474.5q59 -30.5 90.5 -86t31.5 -129.5q0 -24 -5 -59h-363q7 -38 41 -61.5t87 -23.5q37 0 72 11t60 31l82 -88q-42 -39 -99.5 -60t-122.5 -21q-86 0 -149 31.5t-97 89.5t-34 137q0 76 33.5 135t93.5 91.5t139 32.5q81 0 140 -30.5zM225.5 357q-29.5 -24 -33.5 -67h218
q-3 43 -31.5 67t-76.5 24q-47 0 -76.5 -24zM148 679h300v-113h-300v113z" />
    <glyph glyph-name="Ebreve" unicode="&#x114;" horiz-adv-x="666" 
d="M235 138h386v-138h-545v700h534v-137h-375v-142h355v-132h-355v-151zM231 799.5q-44 39.5 -44 109.5h118q0 -22 13 -35t34 -13q22 0 35 13t13 35h117q0 -70 -44 -109.5t-121 -39.5t-121 39.5z" />
    <glyph glyph-name="ebreve" unicode="&#x115;" horiz-adv-x="587" 
d="M437 474.5q59 -30.5 90.5 -86t31.5 -129.5q0 -24 -5 -59h-363q7 -38 41 -61.5t87 -23.5q37 0 72 11t60 31l82 -88q-42 -39 -99.5 -60t-122.5 -21q-86 0 -149 31.5t-97 89.5t-34 137q0 76 33.5 135t93.5 91.5t139 32.5q81 0 140 -30.5zM225.5 357q-29.5 -24 -33.5 -67h218
q-3 43 -31.5 67t-76.5 24q-47 0 -76.5 -24zM177 590.5q-44 39.5 -44 109.5h118q0 -22 13 -35t34 -13q22 0 35 13t13 35h117q0 -70 -44 -109.5t-121 -39.5t-121 39.5z" />
    <glyph glyph-name="Edotaccent" unicode="&#x116;" horiz-adv-x="666" 
d="M235 138h386v-138h-545v700h534v-137h-375v-142h355v-132h-355v-151zM289.5 780q-24.5 23 -24.5 58q0 36 24.5 58.5t62.5 22.5t62.5 -22.5t24.5 -58.5q0 -35 -24.5 -58t-62.5 -23t-62.5 23z" />
    <glyph glyph-name="edotaccent" unicode="&#x117;" horiz-adv-x="587" 
d="M437 474.5q59 -30.5 90.5 -86t31.5 -129.5q0 -24 -5 -59h-363q7 -38 41 -61.5t87 -23.5q37 0 72 11t60 31l82 -88q-42 -39 -99.5 -60t-122.5 -21q-86 0 -149 31.5t-97 89.5t-34 137q0 76 33.5 135t93.5 91.5t139 32.5q81 0 140 -30.5zM225.5 357q-29.5 -24 -33.5 -67h218
q-3 43 -31.5 67t-76.5 24q-47 0 -76.5 -24zM237 576q-24 22 -24 56t24 56t61 22t60.5 -22t23.5 -56t-23.5 -56t-60.5 -22t-61 22z" />
    <glyph glyph-name="Eogonek" unicode="&#x118;" horiz-adv-x="666" 
d="M667 -156q-27 -24 -57 -34.5t-67 -10.5q-52 0 -81.5 26t-29.5 72q0 57 49 103h-405v700h534v-137h-375v-142h355v-132h-355v-151h386v-138q-62 -35 -62 -66q0 -11 7 -17.5t20 -6.5q18 0 34 11z" />
    <glyph glyph-name="eogonek" unicode="&#x119;" horiz-adv-x="587" 
d="M437.5 474.5q59.5 -30.5 91 -86.5t31.5 -130q0 -25 -5 -58h-364q7 -38 41 -61.5t86 -23.5q40 0 74 11t59 31l83 -88q-49 -42 -119 -69q-68 -26 -68 -62q0 -26 26 -26q17 0 33 12l43 -69q-24 -20 -55 -31.5t-63 -11.5q-48 0 -75.5 24t-27.5 66q0 23 10 46t29 42
q-111 12 -173.5 80t-62.5 176q0 83 36.5 141.5t97 88t132.5 29.5q81 0 140.5 -30.5zM226.5 357q-29.5 -24 -34.5 -67h217q-3 45 -32 68t-76 23q-45 0 -74.5 -24z" />
    <glyph glyph-name="Ecaron" unicode="&#x11a;" horiz-adv-x="666" 
d="M235 138h386v-138h-545v700h534v-137h-375v-142h355v-132h-355v-151zM401 910h144l-139 -144h-107l-140 144h144l49 -46z" />
    <glyph glyph-name="ecaron" unicode="&#x11b;" horiz-adv-x="587" 
d="M437 474.5q59 -30.5 90.5 -86t31.5 -129.5q0 -24 -5 -59h-363q7 -38 41 -61.5t87 -23.5q37 0 72 11t60 31l82 -88q-42 -39 -99.5 -60t-122.5 -21q-86 0 -149 31.5t-97 89.5t-34 137q0 76 33.5 135t93.5 91.5t139 32.5q81 0 140 -30.5zM225.5 357q-29.5 -24 -33.5 -67h218
q-3 43 -31.5 67t-76.5 24q-47 0 -76.5 -24zM355 700h141l-150 -150h-97l-149 150h141l56 -53z" />
    <glyph glyph-name="Gcircumflex" unicode="&#x11c;" horiz-adv-x="752" 
d="M706 414v-312q-53 -57 -130.5 -87.5t-170.5 -30.5q-111 0 -194.5 45t-129 128t-45.5 193q0 107 48 190.5t134.5 130t198.5 46.5q81 0 146.5 -28t120.5 -85l-99 -98q-33 33 -77.5 51t-91.5 18q-101 0 -159.5 -60.5t-58.5 -164.5q0 -67 26 -118t74 -79t111 -28q99 0 158 51
v107h-190v131h329zM602 763h-144l-49 46l-49 -46h-144l140 144h107z" />
    <glyph glyph-name="gcircumflex" unicode="&#x11d;" 
d="M547.5 17.5q27.5 -40.5 27.5 -93.5q0 -62 -34 -109.5t-96 -73t-144 -25.5q-80 0 -140 26t-92.5 74t-32.5 111q0 16 1 24h151q-2 -49 27.5 -76t85.5 -27q50 0 81 22.5t31 59.5q0 38 -28.5 58.5t-81.5 20.5q-82 0 -143.5 31t-95 87.5t-33.5 131.5q0 72 34.5 128.5t96 88
t140.5 31.5q61 0 112 -24l58 72l115 -83l-66 -77q50 -57 50 -136q0 -55 -26.5 -101.5t-74.5 -76.5q50 -23 77.5 -63.5zM386 174q32 32 32 85t-31.5 84.5t-84.5 31.5q-52 0 -84 -31.5t-32 -84.5q0 -52 32 -84.5t84 -32.5t84 32zM506 573h-141l-58 53l-56 -53h-141l149 150h97
z" />
    <glyph glyph-name="Gbreve" unicode="&#x11e;" horiz-adv-x="752" 
d="M706 414v-312q-53 -57 -130.5 -87.5t-170.5 -30.5q-111 0 -194.5 45t-129 128t-45.5 193q0 107 48 190.5t134.5 130t198.5 46.5q81 0 146.5 -28t120.5 -85l-99 -98q-33 33 -77.5 51t-91.5 18q-101 0 -159.5 -60.5t-58.5 -164.5q0 -67 26 -118t74 -79t111 -28q99 0 158 51
v107h-190v131h329zM287 799.5q-44 39.5 -44 109.5h118q0 -22 13 -35t34 -13q22 0 35 13t13 35h117q0 -70 -44 -109.5t-121 -39.5t-121 39.5z" />
    <glyph glyph-name="gbreve" unicode="&#x11f;" 
d="M547.5 17.5q27.5 -40.5 27.5 -93.5q0 -62 -34 -109.5t-96 -73t-144 -25.5q-80 0 -140 26t-92.5 74t-32.5 111q0 16 1 24h151q-2 -49 27.5 -76t85.5 -27q50 0 81 22.5t31 59.5q0 38 -28.5 58.5t-81.5 20.5q-82 0 -143.5 31t-95 87.5t-33.5 131.5q0 72 34.5 128.5t96 88
t140.5 31.5q61 0 112 -24l58 72l115 -83l-66 -77q50 -57 50 -136q0 -55 -26.5 -101.5t-74.5 -76.5q50 -23 77.5 -63.5zM386 174q32 32 32 85t-31.5 84.5t-84.5 31.5q-52 0 -84 -31.5t-32 -84.5q0 -52 32 -84.5t84 -32.5t84 32zM186 590.5q-44 39.5 -44 109.5h118
q0 -22 13 -35t34 -13q22 0 35 13t13 35h117q0 -70 -44 -109.5t-121 -39.5t-121 39.5z" />
    <glyph glyph-name="Gdotaccent" unicode="&#x120;" horiz-adv-x="752" 
d="M706 414v-312q-53 -57 -130.5 -87.5t-170.5 -30.5q-111 0 -194.5 45t-129 128t-45.5 193q0 107 48 190.5t134.5 130t198.5 46.5q81 0 146.5 -28t120.5 -85l-99 -98q-33 33 -77.5 51t-91.5 18q-101 0 -159.5 -60.5t-58.5 -164.5q0 -67 26 -118t74 -79t111 -28q99 0 158 51
v107h-190v131h329zM346.5 780q-24.5 23 -24.5 58q0 36 24.5 58.5t62.5 22.5t62.5 -22.5t24.5 -58.5q0 -35 -24.5 -58t-62.5 -23t-62.5 23z" />
    <glyph glyph-name="gdotaccent" unicode="&#x121;" 
d="M547.5 17.5q27.5 -40.5 27.5 -93.5q0 -62 -34 -109.5t-96 -73t-144 -25.5q-80 0 -140 26t-92.5 74t-32.5 111q0 16 1 24h151q-2 -49 27.5 -76t85.5 -27q50 0 81 22.5t31 59.5q0 38 -28.5 58.5t-81.5 20.5q-82 0 -143.5 31t-95 87.5t-33.5 131.5q0 72 34.5 128.5t96 88
t140.5 31.5q61 0 112 -24l58 72l115 -83l-66 -77q50 -57 50 -136q0 -55 -26.5 -101.5t-74.5 -76.5q50 -23 77.5 -63.5zM386 174q32 32 32 85t-31.5 84.5t-84.5 31.5q-52 0 -84 -31.5t-32 -84.5q0 -52 32 -84.5t84 -32.5t84 32zM246 576q-24 22 -24 56t24 56t61 22t60.5 -22
t23.5 -56t-23.5 -56t-60.5 -22t-61 22z" />
    <glyph glyph-name="uni0122" unicode="&#x122;" horiz-adv-x="752" 
d="M706 414v-312q-53 -57 -130.5 -87.5t-170.5 -30.5q-111 0 -194.5 45t-129 128t-45.5 193q0 107 48 190.5t134.5 130t198.5 46.5q81 0 146.5 -28t120.5 -85l-99 -98q-33 33 -77.5 51t-91.5 18q-101 0 -159.5 -60.5t-58.5 -164.5q0 -67 26 -118t74 -79t111 -28q99 0 158 51
v107h-190v131h329zM474 -71.5q21 -19.5 21 -49.5q0 -23 -10 -52.5t-39 -93.5h-76l19 92q-22 4 -34 18.5t-12 37.5q0 29 21.5 48t54.5 19q34 0 55 -19.5z" />
    <glyph glyph-name="uni0123" unicode="&#x123;" 
d="M247 571q-22 22 -22 56q0 28 12 60t46 106h74l-24 -103q22 -7 35 -24.5t13 -41.5q0 -33 -22 -54t-56 -21t-56 22zM547.5 17.5q27.5 -40.5 27.5 -93.5q0 -62 -34 -109.5t-96 -73t-144 -25.5q-80 0 -140 26t-92.5 74t-32.5 111q0 16 1 24h151q-2 -49 27.5 -76t85.5 -27
q50 0 81 22.5t31 59.5q0 38 -28.5 58.5t-81.5 20.5q-82 0 -143.5 31t-95 87.5t-33.5 131.5q0 72 34.5 128.5t96 88t140.5 31.5q61 0 112 -24l58 72l115 -83l-66 -77q50 -57 50 -136q0 -55 -26.5 -101.5t-74.5 -76.5q50 -23 77.5 -63.5zM386 174q32 32 32 85t-31.5 84.5
t-84.5 31.5q-52 0 -84 -31.5t-32 -84.5q0 -52 32 -84.5t84 -32.5t84 32z" />
    <glyph glyph-name="Hcircumflex" unicode="&#x124;" horiz-adv-x="777" 
d="M537 700h163v-700h-163v281h-297v-281h-164v700h164v-271h297v271zM582 763h-144l-49 46l-49 -46h-144l140 144h107z" />
    <glyph glyph-name="hcircumflex" unicode="&#x125;" horiz-adv-x="618" 
d="M511.5 444q53.5 -61 53.5 -165v-279h-157v270q0 48 -23.5 75t-65.5 27q-46 0 -74.5 -31t-28.5 -81v-260h-157v700h157v-260q57 65 151 65q91 0 144.5 -61zM334 756h-141l-58 53l-56 -53h-141l149 150h97z" />
    <glyph glyph-name="Hbar" unicode="&#x126;" horiz-adv-x="792" 
d="M772 613v-98h-64v-515h-164v272h-296v-272h-164v515h-64v98h64v87h164v-87h296v87h164v-87h64zM248 416h296v101h-296v-101z" />
    <glyph glyph-name="hbar" unicode="&#x127;" horiz-adv-x="618" 
d="M509.5 447.5q55.5 -57.5 55.5 -176.5v-271h-157v270q0 50 -25.5 76t-64.5 26q-44 0 -73 -30.5t-29 -82.5v-259h-157v552h-57v92h57v56h157v-56h113v-92h-113v-106q56 59 147 59t146.5 -57.5z" />
    <glyph glyph-name="Itilde" unicode="&#x128;" horiz-adv-x="317" 
d="M76 700h164v-700h-164v700zM153 779q-31 17 -51 17q-30 0 -44 -33l-81 55q15 43 45.5 67t68.5 24q36 0 70 -20q28 -17 52 -17q30 0 44 34l80 -52q-14 -47 -43 -71.5t-66 -24.5t-75 21z" />
    <glyph glyph-name="itilde" unicode="&#x129;" horiz-adv-x="275" 
d="M59 494h157v-494h-157v494zM134 577q-27 17 -43 17q-29 0 -46 -32l-79 54q15 43 45.5 67t68.5 24q32 0 62 -20q25 -17 44 -17q29 0 45 32l79 -50q-14 -48 -42.5 -72t-66.5 -24q-33 0 -67 21z" />
    <glyph glyph-name="Imacron" unicode="&#x12a;" horiz-adv-x="317" 
d="M76 700h164v-700h-164v700zM-1 885h319v-113h-319v113z" />
    <glyph glyph-name="imacron" unicode="&#x12b;" horiz-adv-x="275" 
d="M59 494h157v-494h-157v494zM-1 679h277v-113h-277v113z" />
    <glyph glyph-name="Ibreve" unicode="&#x12c;" horiz-adv-x="317" 
d="M76 700h164v-700h-164v700zM37 799.5q-44 39.5 -44 109.5h118q0 -22 13 -35t34 -13q22 0 35 13t13 35h117q0 -70 -44 -109.5t-121 -39.5t-121 39.5z" />
    <glyph glyph-name="ibreve" unicode="&#x12d;" horiz-adv-x="275" 
d="M59 494h157v-494h-157v494zM24 590.5q-41 39.5 -41 109.5h114q0 -23 11 -35.5t30 -12.5q20 0 30.5 12.5t10.5 35.5h115q0 -70 -41 -109.5t-115 -39.5q-73 0 -114 39.5z" />
    <glyph glyph-name="Iogonek" unicode="&#x12e;" horiz-adv-x="317" 
d="M286 -156q-27 -24 -57 -34.5t-67 -10.5q-52 0 -81.5 26t-29.5 72q0 57 49 103h-24v700h164v-700q-62 -35 -62 -66q0 -11 7 -17.5t20 -6.5q18 0 34 11z" />
    <glyph glyph-name="iogonek" unicode="&#x12f;" horiz-adv-x="275" 
d="M77 576q-24 22 -24 56t24 56t61 22t60.5 -22t23.5 -56t-23.5 -56t-60.5 -22t-61 22zM256 -145q-23 -20 -54 -31.5t-63 -11.5q-46 0 -72 23t-26 62q0 28 14 54.5t38 48.5h-34v494h157v-494q-31 -16 -45 -32t-14 -33q0 -25 24 -25q17 0 32 12z" />
    <glyph glyph-name="Idotaccent" unicode="&#x130;" horiz-adv-x="317" 
d="M76 700h164v-700h-164v700zM96.5 780q-24.5 23 -24.5 58q0 36 24.5 58.5t62.5 22.5t62.5 -22.5t24.5 -58.5q0 -35 -24.5 -58t-62.5 -23t-62.5 23z" />
    <glyph glyph-name="dotlessi" unicode="&#x131;" horiz-adv-x="275" 
d="M59 494h157v-494h-157v494z" />
    <glyph glyph-name="IJ" unicode="&#x132;" horiz-adv-x="1025" 
d="M76 700h164v-700h-164v700zM960 700v-403q0 -95 -38.5 -165t-109.5 -108t-165 -38q-146 0 -227.5 81t-82.5 229h160q1 -79 40 -121.5t110 -42.5q70 0 109.5 43.5t39.5 123.5v259h-204v142h368z" />
    <glyph glyph-name="ij" unicode="&#x133;" horiz-adv-x="552" 
d="M71.5 567q-25.5 24 -25.5 61q0 38 26 62t66 24t66 -24t26 -62q0 -37 -25.5 -61t-66.5 -24t-66.5 24zM59 494h157v-494h-157v494zM348 567q-26 24 -26 61t26 61.5t66 24.5q41 0 67 -24.5t26 -61.5t-26 -61t-67 -24q-40 0 -66 24zM200 -205l35 113q28 -14 51 -14
q25 0 37 17.5t12 54.5v528h157v-528q0 -97 -45.5 -150t-127.5 -53q-58 0 -119 32z" />
    <glyph glyph-name="Jcircumflex" unicode="&#x134;" horiz-adv-x="708" 
d="M643 700v-403q0 -95 -38.5 -165t-109.5 -108t-165 -38q-146 0 -227.5 81t-82.5 229h160q1 -79 40 -121.5t110 -42.5q70 0 109.5 43.5t39.5 123.5v259h-204v142h368zM647 763h-144l-47 45l-47 -45h-144l134 144h113z" />
    <glyph glyph-name="jcircumflex" unicode="&#x135;" horiz-adv-x="277" 
d="M-75 -205l35 113q28 -14 51 -14q25 0 37 17.5t12 54.5v528h157v-528q0 -97 -45.5 -150t-127.5 -53q-58 0 -119 32zM324 550h-139l-47 53l-46 -53h-139l135 150h102z" />
    <glyph glyph-name="uni0136" unicode="&#x136;" horiz-adv-x="684" 
d="M698 0h-213l-246 278v-278h-163v700h163v-274l230 274h202l-295 -343zM407 -71.5q21 -19.5 21 -49.5q0 -23 -10 -52.5t-39 -93.5h-76l19 92q-22 4 -34 18.5t-12 37.5q0 29 21.5 48t54.5 19q34 0 55 -19.5z" />
    <glyph glyph-name="uni0137" unicode="&#x137;" horiz-adv-x="551" 
d="M560 0h-194l-151 196v-196h-156v700h156v-393l137 187h179l-178 -234zM330 -71.5q21 -19.5 21 -49.5q0 -23 -10 -52.5t-39 -93.5h-76l19 92q-22 4 -34 18.5t-12 37.5q0 29 21.5 48t54.5 19q34 0 55 -19.5z" />
    <glyph glyph-name="kgreenlandic" unicode="&#x138;" horiz-adv-x="551" 
d="M560 0h-194l-151 194v-194h-156v494h156v-186l137 186h179l-176 -234z" />
    <glyph glyph-name="Lacute" unicode="&#x139;" horiz-adv-x="609" 
d="M76 700h164v-552h352v-148h-516v700zM156 907h176l-112 -144h-138z" />
    <glyph glyph-name="lacute" unicode="&#x13a;" horiz-adv-x="275" 
d="M59 700h157v-700h-157v700zM128 906h169l-105 -148h-131z" />
    <glyph glyph-name="uni013B" unicode="&#x13b;" horiz-adv-x="609" 
d="M76 700h164v-552h352v-148h-516v700zM396 -71.5q21 -19.5 21 -49.5q0 -23 -10 -52.5t-39 -93.5h-76l19 92q-22 4 -34 18.5t-12 37.5q0 29 21.5 48t54.5 19q34 0 55 -19.5z" />
    <glyph glyph-name="uni013C" unicode="&#x13c;" horiz-adv-x="275" 
d="M59 700h157v-700h-157v700zM193 -71.5q21 -19.5 21 -49.5q0 -23 -10 -52.5t-39 -93.5h-76l19 92q-22 4 -34 18.5t-12 37.5q0 29 21.5 48t54.5 19q34 0 55 -19.5z" />
    <glyph glyph-name="Lcaron" unicode="&#x13d;" horiz-adv-x="609" 
d="M76 700h164v-555h352v-145h-516v700zM414 700h142l-78 -220h-110z" />
    <glyph glyph-name="lcaron" unicode="&#x13e;" horiz-adv-x="371" 
d="M59 700h157v-700h-157v700zM290 700h132l-73 -210h-103z" />
    <glyph glyph-name="Ldot" unicode="&#x13f;" horiz-adv-x="609" 
d="M240 700v-552h352v-148h-516v700h164zM358 300.5q-27 25.5 -27 64.5t27 64t68 25t68 -25t27 -64t-27 -64.5t-68 -25.5t-68 25.5z" />
    <glyph glyph-name="ldot" unicode="&#x140;" horiz-adv-x="439" 
d="M59 700h157v-700h-157v700zM294.5 271q-25.5 24 -25.5 61t25.5 61t65.5 24q39 0 64.5 -24t25.5 -61t-25.5 -61t-64.5 -24q-40 0 -65.5 24z" />
    <glyph glyph-name="Lslash" unicode="&#x141;" horiz-adv-x="617" 
d="M248 145h352v-145h-516v225l-70 -34v126l70 35v348h164v-266l108 54v-129l-108 -53v-161z" />
    <glyph glyph-name="lslash" unicode="&#x142;" horiz-adv-x="321" 
d="M304 485v-116l-65 -32v-337h-157v261l-65 -32v116l65 32v323h157v-247z" />
    <glyph glyph-name="Nacute" unicode="&#x143;" horiz-adv-x="777" 
d="M538 700h163v-700h-147l-317 433l2 -189v-244h-163v700h147l317 -435l-2 187v248zM390 907h176l-112 -144h-138z" />
    <glyph glyph-name="nacute" unicode="&#x144;" horiz-adv-x="618" 
d="M510.5 445q54.5 -60 54.5 -166v-279h-157v270q0 48 -24 75t-66 27q-46 0 -74 -31t-28 -81v-260h-157v494h136l10 -58q29 33 69.5 51t89.5 18q92 0 146.5 -60zM319 700h169l-105 -148h-131z" />
    <glyph glyph-name="uni0145" unicode="&#x145;" horiz-adv-x="777" 
d="M538 700h163v-700h-147l-317 433l2 -189v-244h-163v700h147l317 -435l-2 187v248zM450 -71.5q21 -19.5 21 -49.5q0 -23 -10 -52.5t-39 -93.5h-76l19 92q-22 4 -34 18.5t-12 37.5q0 29 21.5 48t54.5 19q34 0 55 -19.5z" />
    <glyph glyph-name="uni0146" unicode="&#x146;" horiz-adv-x="618" 
d="M510.5 445q54.5 -60 54.5 -166v-279h-157v270q0 48 -24 75t-66 27q-46 0 -74 -31t-28 -81v-260h-157v494h136l10 -58q29 33 69.5 51t89.5 18q92 0 146.5 -60zM367 -71.5q21 -19.5 21 -49.5q0 -23 -10 -52.5t-39 -93.5h-76l19 92q-22 4 -34 18.5t-12 37.5q0 29 21.5 48
t54.5 19q34 0 55 -19.5z" />
    <glyph glyph-name="Ncaron" unicode="&#x147;" horiz-adv-x="777" 
d="M538 700h163v-700h-147l-317 433l2 -189v-244h-163v700h147l317 -435l-2 187v248zM442 910h144l-139 -144h-107l-140 144h144l49 -46z" />
    <glyph glyph-name="ncaron" unicode="&#x148;" horiz-adv-x="618" 
d="M510.5 445q54.5 -60 54.5 -166v-279h-157v270q0 48 -24 75t-66 27q-46 0 -74 -31t-28 -81v-260h-157v494h136l10 -58q29 33 69.5 51t89.5 18q92 0 146.5 -60zM386 700h141l-150 -150h-97l-149 150h141l56 -53z" />
    <glyph glyph-name="napostrophe" unicode="&#x149;" horiz-adv-x="787" 
d="M679.5 445q54.5 -60 54.5 -166v-279h-157v270q0 48 -24 75t-66 27q-46 0 -74 -31t-28 -81v-260h-157v494h136l10 -58q29 33 69.5 51t89.5 18q92 0 146.5 -60zM202.5 684.5q22.5 -22.5 22.5 -58.5q0 -30 -13 -64.5t-48 -108.5h-76l25 107q-23 8 -36.5 26.5t-13.5 43.5
q0 34 22.5 55.5t58.5 21.5t58.5 -22.5z" />
    <glyph glyph-name="Eng" unicode="&#x14a;" horiz-adv-x="777" 
d="M701 700v-726q0 -98 -41.5 -149t-119.5 -51q-65 0 -135 31l28 114q30 -14 52 -14q53 0 53 72v45l-301 411l2 -189v-244h-163v700h146l319 -435l-3 185v250h163z" />
    <glyph glyph-name="eng" unicode="&#x14b;" horiz-adv-x="618" 
d="M510.5 445q54.5 -60 54.5 -166v-304q0 -97 -46.5 -148.5t-127.5 -51.5q-58 0 -119 32l37 112q25 -14 49 -14q50 0 50 72v293q0 48 -24 75t-66 27q-46 0 -74 -31t-28 -81v-260h-157v494h136l10 -58q29 33 69.5 51t89.5 18q92 0 146.5 -60z" />
    <glyph glyph-name="Omacron" unicode="&#x14c;" horiz-adv-x="826" 
d="M214.5 28.5q-85.5 45.5 -132 128.5t-46.5 193t46.5 193t132 128.5t198.5 45.5t198.5 -45.5t132 -128.5t46.5 -193t-46.5 -193t-132 -128.5t-198.5 -45.5t-198.5 45.5zM524.5 156.5q48.5 27.5 75 77.5t26.5 116t-26.5 116t-75 77.5t-111.5 27.5t-111 -27.5t-74.5 -77.5
t-26.5 -116t26.5 -116t74.5 -77.5t111 -27.5t111.5 27.5zM249 885h329v-113h-329v113z" />
    <glyph glyph-name="omacron" unicode="&#x14d;" horiz-adv-x="605" 
d="M158.5 21.5q-61.5 32.5 -94.5 90.5t-33 135t33 135t94.5 90.5t143.5 32.5t144 -32.5t95 -90.5t33 -135t-33 -135t-95 -90.5t-144 -32.5t-143.5 32.5zM386 157q32 35 32 90t-32 90t-84 35q-51 0 -83 -35t-32 -90t32 -90t83 -35q52 0 84 35zM153 679h300v-113h-300v113z
" />
    <glyph glyph-name="Obreve" unicode="&#x14e;" horiz-adv-x="826" 
d="M214.5 28.5q-85.5 45.5 -132 128.5t-46.5 193t46.5 193t132 128.5t198.5 45.5t198.5 -45.5t132 -128.5t46.5 -193t-46.5 -193t-132 -128.5t-198.5 -45.5t-198.5 45.5zM524.5 156.5q48.5 27.5 75 77.5t26.5 116t-26.5 116t-75 77.5t-111.5 27.5t-111 -27.5t-74.5 -77.5
t-26.5 -116t26.5 -116t74.5 -77.5t111 -27.5t111.5 27.5zM292 799.5q-44 39.5 -44 109.5h118q0 -22 13 -35t34 -13q22 0 35 13t13 35h117q0 -70 -44 -109.5t-121 -39.5t-121 39.5z" />
    <glyph glyph-name="obreve" unicode="&#x14f;" horiz-adv-x="605" 
d="M158.5 21.5q-61.5 32.5 -94.5 90.5t-33 135t33 135t94.5 90.5t143.5 32.5t144 -32.5t95 -90.5t33 -135t-33 -135t-95 -90.5t-144 -32.5t-143.5 32.5zM386 157q32 35 32 90t-32 90t-84 35q-51 0 -83 -35t-32 -90t32 -90t83 -35q52 0 84 35zM181 590.5q-44 39.5 -44 109.5
h118q0 -22 13 -35t34 -13q22 0 35 13t13 35h117q0 -70 -44 -109.5t-121 -39.5t-121 39.5z" />
    <glyph glyph-name="Ohungarumlaut" unicode="&#x150;" horiz-adv-x="826" 
d="M214.5 28.5q-85.5 45.5 -132 128.5t-46.5 193t46.5 193t132 128.5t198.5 45.5t198.5 -45.5t132 -128.5t46.5 -193t-46.5 -193t-132 -128.5t-198.5 -45.5t-198.5 45.5zM524.5 156.5q48.5 27.5 75 77.5t26.5 116t-26.5 116t-75 77.5t-111.5 27.5t-111 -27.5t-74.5 -77.5
t-26.5 -116t26.5 -116t74.5 -77.5t111 -27.5t111.5 27.5zM311 906h158l-97 -148h-132zM522 906h153l-108 -148h-132z" />
    <glyph glyph-name="ohungarumlaut" unicode="&#x151;" horiz-adv-x="605" 
d="M158.5 21.5q-61.5 32.5 -94.5 90.5t-33 135t33 135t94.5 90.5t143.5 32.5t144 -32.5t95 -90.5t33 -135t-33 -135t-95 -90.5t-144 -32.5t-143.5 32.5zM386 157q32 35 32 90t-32 90t-84 35q-51 0 -83 -35t-32 -90t32 -90t83 -35q52 0 84 35zM199 700h155l-94 -148h-129z
M408 700h156l-108 -148h-131z" />
    <glyph glyph-name="OE" unicode="&#x152;" horiz-adv-x="1028" 
d="M983 0h-457q-61 -15 -119 -15q-113 0 -196.5 45t-129 127.5t-45.5 193.5t45.5 193t129 126.5t196.5 44.5q52 0 121 -15h444v-136h-319v-143h300v-132h-300v-151h330v-138zM228 235q27 -50 76 -77t113 -27q50 0 92 15v407q-45 16 -95 16q-97 0 -155 -59.5t-58 -159.5
q0 -65 27 -115z" />
    <glyph glyph-name="oe" unicode="&#x153;" horiz-adv-x="957" 
d="M811 474.5q56 -30.5 86.5 -85t30.5 -124.5q0 -32 -6 -65h-362q9 -39 45 -61t81 -22q40 0 74 11.5t57 32.5l83 -89q-40 -42 -94.5 -62.5t-115.5 -20.5q-65 0 -119.5 21t-90.5 63q-34 -40 -83.5 -62t-112.5 -22q-76 0 -133.5 32.5t-88.5 91t-31 134.5t31 134.5t88.5 91
t133.5 32.5q64 0 114.5 -22t83.5 -63q35 42 86.5 63.5t110.5 21.5q76 0 132 -30.5zM598 358.5q-31 -24.5 -37 -68.5h215q2 43 -26.5 68t-74.5 25t-77 -24.5zM384 157q32 35 32 90t-32 90t-83 35t-82.5 -35.5t-31.5 -89.5t31.5 -89.5t82.5 -35.5t83 35z" />
    <glyph glyph-name="Racute" unicode="&#x154;" horiz-adv-x="724" 
d="M335 231h-95v-231h-164v700h341q76 0 133 -29.5t88 -83.5t31 -124q0 -80 -41.5 -137t-117.5 -81l198 -245h-195zM478.5 534q-28.5 26 -80.5 26h-159v-197h159q53 0 81 25.5t28 72.5t-28.5 73zM352 907h176l-112 -144h-138z" />
    <glyph glyph-name="racute" unicode="&#x155;" horiz-adv-x="461" 
d="M408 492.5q34 -12.5 59 -36.5l-66 -115q-21 13 -39 19t-38 6q-50 0 -79 -32t-29 -94v-240h-157v494h137l12 -62q48 73 132 73q34 0 68 -12.5zM232 700h169l-105 -148h-131z" />
    <glyph glyph-name="uni0156" unicode="&#x156;" horiz-adv-x="724" 
d="M335 231h-95v-231h-164v700h341q76 0 133 -29.5t88 -83.5t31 -124q0 -80 -41.5 -137t-117.5 -81l198 -245h-195zM478.5 534q-28.5 26 -80.5 26h-159v-197h159q53 0 81 25.5t28 72.5t-28.5 73zM429 -71.5q21 -19.5 21 -49.5q0 -23 -10 -52.5t-39 -93.5h-76l19 92
q-22 4 -34 18.5t-12 37.5q0 29 21.5 48t54.5 19q34 0 55 -19.5z" />
    <glyph glyph-name="uni0157" unicode="&#x157;" horiz-adv-x="461" 
d="M408 492.5q34 -12.5 59 -36.5l-66 -115q-21 13 -39 19t-38 6q-50 0 -79 -32t-29 -94v-240h-157v494h137l12 -62q48 73 132 73q34 0 68 -12.5zM193 -71.5q21 -19.5 21 -49.5q0 -23 -10 -52.5t-39 -93.5h-76l19 92q-22 4 -34 18.5t-12 37.5q0 29 21.5 48t54.5 19
q34 0 55 -19.5z" />
    <glyph glyph-name="Rcaron" unicode="&#x158;" horiz-adv-x="724" 
d="M335 231h-95v-231h-164v700h341q76 0 133 -29.5t88 -83.5t31 -124q0 -80 -41.5 -137t-117.5 -81l198 -245h-195zM478.5 534q-28.5 26 -80.5 26h-159v-197h159q53 0 81 25.5t28 72.5t-28.5 73zM403 910h144l-139 -144h-107l-140 144h144l49 -46z" />
    <glyph glyph-name="rcaron" unicode="&#x159;" horiz-adv-x="461" 
d="M408 492.5q34 -12.5 59 -36.5l-66 -115q-21 13 -39 19t-38 6q-50 0 -79 -32t-29 -94v-240h-157v494h137l12 -62q48 73 132 73q34 0 68 -12.5zM299 700h141l-150 -150h-97l-149 150h141l56 -53z" />
    <glyph glyph-name="Sacute" unicode="&#x15a;" horiz-adv-x="659" 
d="M169.5 10q-79.5 26 -137.5 73l85 119q93 -73 217 -73q62 0 98.5 21t36.5 57q0 34 -34 53t-108 27q-143 16 -209.5 67t-66.5 146q0 64 36 113t101 76t150 27q73 0 142.5 -21t122.5 -59l-77 -115q-82 57 -181 57q-61 0 -97.5 -20t-36.5 -54q0 -33 31.5 -51t105.5 -27
q142 -16 212 -70.5t70 -149.5q0 -66 -37 -116.5t-104 -78t-154 -27.5q-86 0 -165.5 26zM327 907h176l-112 -144h-138z" />
    <glyph glyph-name="sacute" unicode="&#x15b;" horiz-adv-x="506" 
d="M23 53l60 108q36 -22 83.5 -34t94.5 -12q65 0 65 35q0 18 -18 27t-60 12q-94 5 -149.5 47t-55.5 110q0 74 60 117.5t162 43.5q58 0 110.5 -14t90.5 -39l-61 -105q-56 32 -133 32q-76 0 -76 -36q0 -15 15.5 -23t52.5 -12q106 -8 161.5 -48t55.5 -112q0 -76 -61 -119.5
t-169 -43.5q-131 0 -228 66zM244 700h169l-105 -148h-131z" />
    <glyph glyph-name="Scircumflex" unicode="&#x15c;" horiz-adv-x="659" 
d="M169.5 10q-79.5 26 -137.5 73l85 119q93 -73 217 -73q62 0 98.5 21t36.5 57q0 34 -34 53t-108 27q-143 16 -209.5 67t-66.5 146q0 64 36 113t101 76t150 27q73 0 142.5 -21t122.5 -59l-77 -115q-82 57 -181 57q-61 0 -97.5 -20t-36.5 -54q0 -33 31.5 -51t105.5 -27
q142 -16 212 -70.5t70 -149.5q0 -66 -37 -116.5t-104 -78t-154 -27.5q-86 0 -165.5 26zM523 763h-144l-49 46l-49 -46h-144l140 144h107z" />
    <glyph glyph-name="scircumflex" unicode="&#x15d;" horiz-adv-x="506" 
d="M23 53l60 108q36 -22 83.5 -34t94.5 -12q65 0 65 35q0 18 -18 27t-60 12q-94 5 -149.5 47t-55.5 110q0 74 60 117.5t162 43.5q58 0 110.5 -14t90.5 -39l-61 -105q-56 32 -133 32q-76 0 -76 -36q0 -15 15.5 -23t52.5 -12q106 -8 161.5 -48t55.5 -112q0 -76 -61 -119.5
t-169 -43.5q-131 0 -228 66zM452 550h-141l-58 53l-56 -53h-141l149 150h97z" />
    <glyph glyph-name="Scedilla" unicode="&#x15e;" horiz-adv-x="659" 
d="M562 56.5q-68 -59.5 -182 -70.5l-11 -26q45 -4 71.5 -31t26.5 -70q0 -47 -38 -76.5t-99 -29.5q-42 0 -77 13.5t-58 39.5l53 61q33 -27 73 -27q21 0 33 8t12 22q0 15 -12.5 23.5t-33.5 8.5q-24 0 -35 -7l-30 28l24 64q-71 8 -135 32.5t-112 63.5l85 119q93 -73 217 -73
q62 0 98.5 21t36.5 57q0 34 -34 53t-108 27q-143 16 -209.5 67t-66.5 146q0 64 36 113t101 76t150 27q73 0 142.5 -21t122.5 -59l-77 -115q-82 57 -181 57q-61 0 -97.5 -20t-36.5 -54q0 -33 31.5 -51t105.5 -27q142 -16 212 -70.5t70 -149.5q0 -90 -68 -149.5z" />
    <glyph glyph-name="scedilla" unicode="&#x15f;" horiz-adv-x="506" 
d="M434 41.5q-47 -41.5 -133 -51.5l-12 -30q45 -3 71.5 -30t26.5 -71q0 -47 -37.5 -76.5t-98.5 -29.5q-42 0 -77 13.5t-57 38.5l53 61q32 -27 72 -27q20 0 32 8.5t12 22.5q0 15 -12 24t-33 9t-35 -8l-30 28l26 67q-100 10 -179 63l60 108q36 -22 83.5 -34t94.5 -12
q65 0 65 35q0 18 -18 27t-60 12q-94 5 -149.5 47t-55.5 110q0 74 60 117.5t162 43.5q58 0 110.5 -14t90.5 -39l-61 -105q-56 32 -133 32q-76 0 -76 -36q0 -15 15.5 -23t52.5 -12q106 -8 161.5 -48t55.5 -112q0 -67 -47 -108.5z" />
    <glyph glyph-name="Scaron" unicode="&#x160;" horiz-adv-x="659" 
d="M169.5 10q-79.5 26 -137.5 73l85 119q93 -73 217 -73q62 0 98.5 21t36.5 57q0 34 -34 53t-108 27q-143 16 -209.5 67t-66.5 146q0 64 36 113t101 76t150 27q73 0 142.5 -21t122.5 -59l-77 -115q-82 57 -181 57q-61 0 -97.5 -20t-36.5 -54q0 -33 31.5 -51t105.5 -27
q142 -16 212 -70.5t70 -149.5q0 -66 -37 -116.5t-104 -78t-154 -27.5q-86 0 -165.5 26zM379 910h144l-139 -144h-107l-140 144h144l49 -46z" />
    <glyph glyph-name="scaron" unicode="&#x161;" horiz-adv-x="506" 
d="M23 53l60 108q36 -22 83.5 -34t94.5 -12q65 0 65 35q0 18 -18 27t-60 12q-94 5 -149.5 47t-55.5 110q0 74 60 117.5t162 43.5q58 0 110.5 -14t90.5 -39l-61 -105q-56 32 -133 32q-76 0 -76 -36q0 -15 15.5 -23t52.5 -12q106 -8 161.5 -48t55.5 -112q0 -76 -61 -119.5
t-169 -43.5q-131 0 -228 66zM311 700h141l-150 -150h-97l-149 150h141l56 -53z" />
    <glyph glyph-name="uni0162" unicode="&#x162;" horiz-adv-x="622" 
d="M360 0l-16 -40q45 -4 71.5 -31t26.5 -70q0 -47 -38 -76.5t-99 -29.5q-42 0 -77 13.5t-58 39.5l53 61q33 -27 73 -27q21 0 33 8t12 22q0 15 -12.5 23.5t-33.5 8.5q-24 0 -35 -7l-30 28l29 77h-30v557h-213v143h591v-143h-214v-557h-33z" />
    <glyph glyph-name="uni0163" unicode="&#x163;" horiz-adv-x="424" 
d="M368.5 -70q26.5 -27 26.5 -71q0 -47 -37.5 -76.5t-98.5 -29.5q-42 0 -77 13.5t-57 38.5l53 61q32 -27 72 -27q20 0 32 8.5t12 22.5q0 15 -12 24t-33 9t-35 -8l-30 28l29 77q-106 33 -106 182v187h-84v125h84v123l156 17v-140h123v-125h-123v-187q0 -30 15 -44.5t41 -14.5
q29 0 57 14l37 -118q-47 -23 -103 -28l-13 -31q45 -3 71.5 -30z" />
    <glyph glyph-name="Tcaron" unicode="&#x164;" horiz-adv-x="622" 
d="M607 700v-143h-214v-557h-164v557h-213v143h591zM360 910h144l-139 -144h-107l-140 144h144l49 -46z" />
    <glyph glyph-name="tcaron" unicode="&#x165;" horiz-adv-x="506" 
d="M429 647h139l-76 -217h-107zM376 137l37 -118q-58 -29 -131 -29q-81 0 -128 45.5t-47 146.5v187h-84v125h84v123l156 17v-140h95v-125h-95v-187q0 -30 15 -44.5t41 -14.5q29 0 57 14z" />
    <glyph glyph-name="Tbar" unicode="&#x166;" horiz-adv-x="622" 
d="M607 560h-214v-155h123v-122h-123v-283h-164v283h-123v122h123v155h-213v140h591v-140z" />
    <glyph glyph-name="tbar" unicode="&#x167;" horiz-adv-x="424" 
d="M413 19q-58 -29 -131 -29q-81 0 -128 45.5t-47 146.5v28h-68v96h68v69h-84v119h84v123l156 17v-140h123v-119h-123v-69h90v-96h-90v-28q0 -30 15 -44.5t41 -14.5q32 0 57 17z" />
    <glyph glyph-name="Utilde" unicode="&#x168;" horiz-adv-x="766" 
d="M148.5 68.5q-83.5 83.5 -83.5 233.5v398h164v-398q0 -80 40.5 -126t113.5 -46q71 0 112 46t41 126v398h164v-398q0 -150 -83 -233.5t-234 -83.5t-234.5 83.5zM377 779q-31 17 -51 17q-30 0 -44 -33l-81 55q15 43 45.5 67t68.5 24q36 0 70 -20q28 -17 52 -17q30 0 44 34
l80 -52q-14 -47 -43 -71.5t-66 -24.5t-75 21z" />
    <glyph glyph-name="utilde" unicode="&#x169;" 
d="M555 494v-494h-136l-10 57q-28 -33 -68.5 -50.5t-88.5 -17.5q-91 0 -145 60t-54 166v279h157v-270q0 -48 23.5 -75t64.5 -27q45 0 72.5 31.5t27.5 81.5v259h157zM299 577q-31 17 -49 17q-30 0 -44 -33l-81 55q15 43 45.5 67t68.5 24q34 0 68 -20q24 -17 50 -17
q30 0 44 34l80 -52q-14 -48 -42.5 -72t-66.5 -24q-35 0 -73 21z" />
    <glyph glyph-name="Umacron" unicode="&#x16a;" horiz-adv-x="766" 
d="M148.5 68.5q-83.5 83.5 -83.5 233.5v398h164v-398q0 -80 40.5 -126t113.5 -46q71 0 112 46t41 126v398h164v-398q0 -150 -83 -233.5t-234 -83.5t-234.5 83.5zM218 885h329v-113h-329v113z" />
    <glyph glyph-name="umacron" unicode="&#x16b;" 
d="M555 494v-494h-136l-10 57q-28 -33 -68.5 -50.5t-88.5 -17.5q-91 0 -145 60t-54 166v279h157v-270q0 -48 23.5 -75t64.5 -27q45 0 72.5 31.5t27.5 81.5v259h157zM155 679h300v-113h-300v113z" />
    <glyph glyph-name="Ubreve" unicode="&#x16c;" horiz-adv-x="766" 
d="M148.5 68.5q-83.5 83.5 -83.5 233.5v398h164v-398q0 -80 40.5 -126t113.5 -46q71 0 112 46t41 126v398h164v-398q0 -150 -83 -233.5t-234 -83.5t-234.5 83.5zM261 799.5q-44 39.5 -44 109.5h118q0 -22 13 -35t34 -13q22 0 35 13t13 35h117q0 -70 -44 -109.5t-121 -39.5
t-121 39.5z" />
    <glyph glyph-name="ubreve" unicode="&#x16d;" 
d="M555 494v-494h-136l-10 57q-28 -33 -68.5 -50.5t-88.5 -17.5q-91 0 -145 60t-54 166v279h157v-270q0 -48 23.5 -75t64.5 -27q45 0 72.5 31.5t27.5 81.5v259h157zM183 590.5q-44 39.5 -44 109.5h118q0 -22 13 -35t34 -13q22 0 35 13t13 35h117q0 -70 -44 -109.5
t-121 -39.5t-121 39.5z" />
    <glyph glyph-name="Uring" unicode="&#x16e;" horiz-adv-x="766" 
d="M148.5 68.5q-83.5 83.5 -83.5 233.5v398h164v-398q0 -80 40.5 -126t113.5 -46q71 0 112 46t41 126v398h164v-398q0 -150 -83 -233.5t-234 -83.5t-234.5 83.5zM282 779.5q-39 34.5 -39 88.5q0 55 39 89.5t100 34.5q62 0 101 -34.5t39 -89.5q0 -54 -39 -88.5t-101 -34.5
q-61 0 -100 34.5zM412.5 839q11.5 11 11.5 29t-11.5 29.5t-30.5 11.5t-30.5 -11.5t-11.5 -29.5q0 -17 11.5 -28.5t30.5 -11.5t30.5 11z" />
    <glyph glyph-name="uring" unicode="&#x16f;" 
d="M555 494v-494h-136l-10 57q-28 -33 -68.5 -50.5t-88.5 -17.5q-91 0 -145 60t-54 166v279h157v-270q0 -48 23.5 -75t64.5 -27q45 0 72.5 31.5t27.5 81.5v259h157zM204 573.5q-39 34.5 -39 88.5q0 55 39 89.5t100 34.5q62 0 101 -34.5t39 -89.5q0 -54 -39 -88.5t-101 -34.5
q-61 0 -100 34.5zM334.5 633q11.5 11 11.5 29t-11.5 29.5t-30.5 11.5t-30.5 -11.5t-11.5 -29.5q0 -17 11.5 -28.5t30.5 -11.5t30.5 11z" />
    <glyph glyph-name="Uhungarumlaut" unicode="&#x170;" horiz-adv-x="766" 
d="M148.5 68.5q-83.5 83.5 -83.5 233.5v398h164v-398q0 -80 40.5 -126t113.5 -46q71 0 112 46t41 126v398h164v-398q0 -150 -83 -233.5t-234 -83.5t-234.5 83.5zM280 906h158l-97 -148h-132zM491 906h153l-108 -148h-132z" />
    <glyph glyph-name="uhungarumlaut" unicode="&#x171;" 
d="M555 494v-494h-136l-10 57q-28 -33 -68.5 -50.5t-88.5 -17.5q-91 0 -145 60t-54 166v279h157v-270q0 -48 23.5 -75t64.5 -27q45 0 72.5 31.5t27.5 81.5v259h157zM201 700h155l-94 -148h-129zM410 700h156l-108 -148h-131z" />
    <glyph glyph-name="Uogonek" unicode="&#x172;" horiz-adv-x="766" 
d="M700 700v-398q0 -119 -52.5 -196.5t-151.5 -105.5q-61 -35 -61 -66q0 -11 7 -17.5t20 -6.5q18 0 34 11l47 -77q-27 -24 -57 -34.5t-67 -10.5q-52 0 -81.5 26t-29.5 72q0 49 36 90q-133 11 -206 93t-73 222v398h164v-398q0 -80 40.5 -126t113.5 -46q71 0 112 46t41 126
v398h164z" />
    <glyph glyph-name="uogonek" unicode="&#x173;" 
d="M601 -141q-53 -47 -125 -47q-50 0 -78.5 24t-28.5 66q0 56 50 100l-10 55q-28 -33 -68.5 -50.5t-88.5 -17.5q-91 0 -145 60t-54 166v279h157v-270q0 -48 23.5 -75t64.5 -27q45 0 72.5 31.5t27.5 81.5v259h157v-494q-69 -31 -69 -62q0 -11 8 -18.5t21 -7.5q10 0 21.5 4.5
t20.5 11.5z" />
    <glyph glyph-name="Wcircumflex" unicode="&#x174;" horiz-adv-x="1107" 
d="M919 700h179l-245 -700h-155l-66 195l-80 235l-78 -235l-67 -195h-152l-246 700h179l88 -279l57 -199l159 478h118l163 -481l61 202zM744 763h-144l-49 46l-49 -46h-144l140 144h107z" />
    <glyph glyph-name="wcircumflex" unicode="&#x175;" horiz-adv-x="829" 
d="M661 494h166l-165 -494h-149l-41 121l-57 159l-57 -159l-41 -121h-150l-165 494h166l44 -152l38 -152l113 304h104l113 -305l38 153zM613 550h-141l-58 53l-56 -53h-141l149 150h97z" />
    <glyph glyph-name="Ycircumflex" unicode="&#x176;" horiz-adv-x="710" 
d="M717 700l-285 -426v-274h-163v274l-275 426h192l166 -272l170 272h195zM547 763h-144l-49 46l-49 -46h-144l140 144h107z" />
    <glyph glyph-name="ycircumflex" unicode="&#x177;" horiz-adv-x="575" 
d="M403 494h170l-308 -708h-167l96 221l-192 487h169l57 -156l54 -161l58 161zM485 550h-141l-58 53l-56 -53h-141l149 150h97z" />
    <glyph glyph-name="Ydieresis" unicode="&#x178;" horiz-adv-x="710" 
d="M717 700l-285 -426v-274h-163v274l-275 426h192l166 -272l170 272h195zM178.5 782q-24.5 22 -24.5 60t24.5 59.5t59.5 21.5q34 0 59 -21.5t25 -59.5t-25 -60t-59 -22q-35 0 -59.5 22zM412 782q-25 22 -25 60t25 59.5t59 21.5q35 0 59.5 -21.5t24.5 -59.5t-24.5 -60
t-59.5 -22q-34 0 -59 22z" />
    <glyph glyph-name="Zacute" unicode="&#x179;" horiz-adv-x="631" 
d="M254 143h343v-143h-572v61l340 500h-318v139h544v-59zM320 907h176l-112 -144h-138z" />
    <glyph glyph-name="zacute" unicode="&#x17a;" horiz-adv-x="501" 
d="M249 137h218v-137h-442v52l212 309h-193v133h416v-50zM243 700h169l-105 -148h-131z" />
    <glyph glyph-name="Zdotaccent" unicode="&#x17b;" horiz-adv-x="631" 
d="M254 143h343v-143h-572v61l340 500h-318v139h544v-59zM259.5 780q-24.5 23 -24.5 58q0 36 24.5 58.5t62.5 22.5t62.5 -22.5t24.5 -58.5q0 -35 -24.5 -58t-62.5 -23t-62.5 23z" />
    <glyph glyph-name="zdotaccent" unicode="&#x17c;" horiz-adv-x="501" 
d="M249 137h218v-137h-442v52l212 309h-193v133h416v-50zM192 576q-24 22 -24 56t24 56t61 22t60.5 -22t23.5 -56t-23.5 -56t-60.5 -22t-61 22z" />
    <glyph glyph-name="Zcaron" unicode="&#x17d;" horiz-adv-x="631" 
d="M254 143h343v-143h-572v61l340 500h-318v139h544v-59zM371 910h144l-139 -144h-107l-140 144h144l49 -46z" />
    <glyph glyph-name="zcaron" unicode="&#x17e;" horiz-adv-x="501" 
d="M249 137h218v-137h-442v52l212 309h-193v133h416v-50zM310 700h141l-150 -150h-97l-149 150h141l56 -53z" />
    <glyph glyph-name="longs" unicode="&#x17f;" horiz-adv-x="346" 
d="M386.5 704q36.5 -12 63.5 -36l-51 -101q-32 25 -70 25q-28 0 -45 -18t-17 -54v-520h-159v368h-87v126h87v26q0 66 28.5 110t74.5 65t99 21q40 0 76.5 -12z" />
    <glyph glyph-name="florin" unicode="&#x192;" horiz-adv-x="455" 
d="M308 493h134v-125h-134v-369q0 -97 -53 -149.5t-135 -52.5q-37 0 -74 11.5t-68 32.5l51 105q14 -10 27.5 -14t30.5 -4q29 0 46 20t17 57v363h-87v126h87v26q0 66 28 110t74 65t99 21q40 0 77 -12.5t64 -35.5l-52 -101q-32 25 -70 25q-27 0 -44.5 -18t-17.5 -54v-27z" />
    <glyph glyph-name="AEacute" unicode="&#x1fc;" horiz-adv-x="1028" 
d="M645 138h338v-138h-491v126h-257l-81 -126h-184l451 700h551v-137h-327v-142h306v-132h-306v-151zM323 271h169v171l1 103l-64 -108zM551 907h176l-112 -144h-138z" />
    <glyph glyph-name="aeacute" unicode="&#x1fd;" horiz-adv-x="979" 
d="M842.5 474q52.5 -30 81 -85t28.5 -127q0 -30 -6 -65h-355q8 -37 42 -58.5t86 -21.5q38 0 72 11t57 31l83 -89q-40 -38 -95 -59t-115 -21q-105 0 -163 63l-7 -53h-124l-5 54q-62 -64 -157 -64q-68 0 -121 32.5t-83 91t-30 133.5t30 133.5t83 91t121 32.5q97 0 159 -65
l6 55h121l7 -53q61 63 162 63q70 0 122.5 -30zM627 363q-29 -23 -36 -63h218q-1 38 -30.5 62t-76.5 24q-46 0 -75 -23zM385 157q32 35 32 90t-32 90t-83 35t-83 -35t-32 -90t32 -90t83 -35t83 35zM481 700h169l-105 -148h-131z" />
    <glyph glyph-name="Oslashacute" unicode="&#x1fe;" horiz-adv-x="830" 
d="M761.5 514q32.5 -73 32.5 -164q0 -110 -47 -193t-132.5 -128.5t-199.5 -45.5q-80 0 -143 22l-47 -76h-147l84 134q-61 48 -93.5 122t-32.5 165q0 110 47 193t133 128.5t199 45.5q75 0 143 -22l48 76h148l-86 -135q61 -49 93.5 -122zM300.5 547q-49.5 -28 -77 -79
t-27.5 -118q0 -46 13.5 -85t37.5 -68l232 370q-32 8 -64 8q-65 0 -114.5 -28zM530 153q50 28 77 79t27 118q0 92 -50 153l-232 -370q30 -8 63 -8q65 0 115 28zM413 907h176l-112 -144h-138z" />
    <glyph glyph-name="oslashacute" unicode="&#x1ff;" horiz-adv-x="601" 
d="M545 366.5q25 -53.5 25 -119.5q0 -77 -33 -135t-94.5 -90.5t-142.5 -32.5q-49 0 -91 12l-36 -62h-104l59 101q-47 34 -72 87t-25 120q0 76 33 134.5t94 91t142 32.5q53 0 93 -13l36 61h103l-59 -99q47 -34 72 -87.5zM218.5 337q-31.5 -35 -31.5 -90q0 -41 19 -74l116 197
q-14 2 -22 2q-50 0 -81.5 -35zM382.5 157q31.5 35 31.5 90q0 41 -19 73l-115 -196q14 -2 20 -2q51 0 82.5 35zM290 700h169l-105 -148h-131z" />
    <glyph glyph-name="uni0218" unicode="&#x218;" horiz-adv-x="659" 
d="M169.5 10q-79.5 26 -137.5 73l85 119q93 -73 217 -73q62 0 98.5 21t36.5 57q0 34 -34 53t-108 27q-143 16 -209.5 67t-66.5 146q0 64 36 113t101 76t150 27q73 0 142.5 -21t122.5 -59l-77 -115q-82 57 -181 57q-61 0 -97.5 -20t-36.5 -54q0 -33 31.5 -51t105.5 -27
q142 -16 212 -70.5t70 -149.5q0 -66 -37 -116.5t-104 -78t-154 -27.5q-86 0 -165.5 26zM391 -71.5q21 -19.5 21 -49.5q0 -23 -10 -52.5t-39 -93.5h-76l19 92q-22 4 -34 18.5t-12 37.5q0 29 21.5 48t54.5 19q34 0 55 -19.5z" />
    <glyph glyph-name="uni0219" unicode="&#x219;" horiz-adv-x="506" 
d="M23 53l60 108q36 -22 83.5 -34t94.5 -12q65 0 65 35q0 18 -18 27t-60 12q-94 5 -149.5 47t-55.5 110q0 74 60 117.5t162 43.5q58 0 110.5 -14t90.5 -39l-61 -105q-56 32 -133 32q-76 0 -76 -36q0 -15 15.5 -23t52.5 -12q106 -8 161.5 -48t55.5 -112q0 -76 -61 -119.5
t-169 -43.5q-131 0 -228 66zM313 -71.5q21 -19.5 21 -49.5q0 -23 -10 -52.5t-39 -93.5h-76l19 92q-22 4 -34 18.5t-12 37.5q0 29 21.5 48t54.5 19q34 0 55 -19.5z" />
    <glyph glyph-name="uni021A" unicode="&#x21a;" horiz-adv-x="622" 
d="M607 700v-143h-214v-557h-164v557h-213v143h591zM366 -71.5q21 -19.5 21 -49.5q0 -23 -10 -52.5t-39 -93.5h-76l19 92q-22 4 -34 18.5t-12 37.5q0 29 21.5 48t54.5 19q34 0 55 -19.5z" />
    <glyph glyph-name="uni021B" unicode="&#x21b;" horiz-adv-x="424" 
d="M413 19q-58 -29 -131 -29q-81 0 -128 45.5t-47 146.5v187h-84v125h84v123l156 17v-140h123v-125h-123v-187q0 -30 15 -44.5t41 -14.5q29 0 57 14zM322 -71.5q21 -19.5 21 -49.5q0 -23 -10 -52.5t-39 -93.5h-76l19 92q-22 4 -34 18.5t-12 37.5q0 29 21.5 48t54.5 19
q34 0 55 -19.5z" />
    <glyph glyph-name="uni0237" unicode="&#x237;" horiz-adv-x="277" 
d="M-75 -205l35 113q28 -14 51 -14q25 0 37 17.5t12 54.5v528h157v-528q0 -97 -45.5 -150t-127.5 -53q-58 0 -119 32z" />
    <glyph glyph-name="circumflex" unicode="&#x2c6;" horiz-adv-x="441" 
d="M409 550h-141l-58 53l-56 -53h-141l149 150h97z" />
    <glyph glyph-name="caron" unicode="&#x2c7;" horiz-adv-x="432" 
d="M274 700h141l-150 -150h-97l-149 150h141l56 -53z" />
    <glyph glyph-name="breve" unicode="&#x2d8;" horiz-adv-x="382" 
d="M73 590.5q-44 39.5 -44 109.5h118q0 -22 13 -35t34 -13q22 0 35 13t13 35h117q0 -70 -44 -109.5t-121 -39.5t-121 39.5z" />
    <glyph glyph-name="dotaccent" unicode="&#x2d9;" horiz-adv-x="253" 
d="M61 576q-24 22 -24 56t24 56t61 22t60.5 -22t23.5 -56t-23.5 -56t-60.5 -22t-61 22z" />
    <glyph glyph-name="ring" unicode="&#x2da;" horiz-adv-x="396" 
d="M89 573.5q-39 34.5 -39 88.5q0 55 39 89.5t100 34.5q62 0 101 -34.5t39 -89.5q0 -54 -39 -88.5t-101 -34.5q-61 0 -100 34.5zM219.5 633q11.5 11 11.5 29t-11.5 29.5t-30.5 11.5t-30.5 -11.5t-11.5 -29.5q0 -17 11.5 -28.5t30.5 -11.5t30.5 11z" />
    <glyph glyph-name="ogonek" unicode="&#x2db;" horiz-adv-x="395" 
d="M153.5 -164q-28.5 24 -28.5 66q0 45 33.5 83.5t91.5 60.5l61 -46q-69 -31 -69 -62q0 -11 8 -18.5t21 -7.5q10 0 21.5 4.5t20.5 11.5l44 -69q-53 -47 -125 -47q-50 0 -78.5 24z" />
    <glyph glyph-name="tilde" unicode="&#x2dc;" horiz-adv-x="447" 
d="M216 577q-31 17 -49 17q-30 0 -44 -33l-81 55q15 43 45.5 67t68.5 24q34 0 68 -20q24 -17 50 -17q30 0 44 34l80 -52q-14 -48 -42.5 -72t-66.5 -24q-35 0 -73 21z" />
    <glyph glyph-name="hungarumlaut" unicode="&#x2dd;" horiz-adv-x="487" 
d="M136 700h155l-94 -148h-129zM345 700h156l-108 -148h-131z" />
    <glyph glyph-name="gravecomb" unicode="&#x300;" horiz-adv-x="0" 
d="M-307 552l-105 148h169l67 -148h-131z" />
    <glyph glyph-name="acutecomb" unicode="&#x301;" horiz-adv-x="0" 
d="M-182 700h169l-105 -148h-131z" />
    <glyph glyph-name="uni0302" unicode="&#x302;" horiz-adv-x="0" 
d="M-50 550h-141l-58 53l-56 -53h-141l149 150h97z" />
    <glyph glyph-name="tildecomb" unicode="&#x303;" horiz-adv-x="0" 
d="M-248 577q-31 17 -49 17q-30 0 -44 -33l-81 55q15 43 45.5 67t68.5 24q34 0 68 -20q24 -17 50 -17q30 0 44 34l80 -52q-14 -48 -42.5 -72t-66.5 -24q-35 0 -73 21z" />
    <glyph glyph-name="uni0304" unicode="&#x304;" horiz-adv-x="0" 
d="M-374 679h300v-113h-300v113z" />
    <glyph glyph-name="uni0306" unicode="&#x306;" horiz-adv-x="0" 
d="M-337 590.5q-44 39.5 -44 109.5h118q0 -22 13 -35t34 -13q22 0 35 13t13 35h117q0 -70 -44 -109.5t-121 -39.5t-121 39.5z" />
    <glyph glyph-name="uni0307" unicode="&#x307;" horiz-adv-x="0" 
d="M-200 576q-24 22 -24 56t24 56t61 22t60.5 -22t23.5 -56t-23.5 -56t-60.5 -22t-61 22z" />
    <glyph glyph-name="uni0308" unicode="&#x308;" horiz-adv-x="0" 
d="M-418.5 574.5q-23.5 20.5 -23.5 57.5q0 36 24 56.5t56 20.5q33 0 56.5 -20.5t23.5 -56.5q0 -37 -23.5 -57.5t-56.5 -20.5t-56.5 20.5zM-196.5 574.5q-23.5 20.5 -23.5 57.5q0 36 24 56.5t56 20.5q33 0 57 -20.5t24 -56.5q0 -37 -24 -57.5t-57 -20.5t-56.5 20.5z" />
    <glyph glyph-name="uni030A" unicode="&#x30a;" horiz-adv-x="0" 
d="M-292 573.5q-39 34.5 -39 88.5q0 55 39 89.5t100 34.5q62 0 101 -34.5t39 -89.5q0 -54 -39 -88.5t-101 -34.5q-61 0 -100 34.5zM-161.5 633q11.5 11 11.5 29t-11.5 29.5t-30.5 11.5t-30.5 -11.5t-11.5 -29.5q0 -17 11.5 -28.5t30.5 -11.5t30.5 11z" />
    <glyph glyph-name="uni030B" unicode="&#x30b;" horiz-adv-x="0" 
d="M-377 700h155l-94 -148h-129zM-168 700h156l-108 -148h-131z" />
    <glyph glyph-name="uni030C" unicode="&#x30c;" horiz-adv-x="0" 
d="M-192 700h141l-150 -150h-97l-149 150h141l56 -53z" />
    <glyph glyph-name="uni0312" unicode="&#x312;" horiz-adv-x="0" 
d="M-68.5 660.5q14.5 -20.5 14.5 -48.5q0 -38 -25 -62t-65 -24q-41 0 -65.5 25t-24.5 65q0 33 14 71t53 121h85l-27 -119q26 -8 40.5 -28.5z" />
    <glyph glyph-name="uni0326" unicode="&#x326;" horiz-adv-x="0" 
d="M-29 -71.5q21 -19.5 21 -49.5q0 -23 -10 -52.5t-39 -93.5h-76l19 92q-22 4 -34 18.5t-12 37.5q0 29 21.5 48t54.5 19q34 0 55 -19.5z" />
    <glyph glyph-name="uni0327" unicode="&#x327;" horiz-adv-x="0" 
d="M-91.5 -70q26.5 -27 26.5 -71q0 -47 -37.5 -76.5t-98.5 -29.5q-42 0 -77 13.5t-57 38.5l53 61q32 -27 72 -27q20 0 32 8.5t12 22.5q0 15 -12 24t-33 9t-35 -8l-30 28l38 99l97 -8l-22 -54q45 -3 71.5 -30z" />
    <glyph glyph-name="uni0328" unicode="&#x328;" horiz-adv-x="0" 
d="M-220.5 -164q-28.5 24 -28.5 66q0 45 33.5 83.5t91.5 60.5l61 -46q-69 -31 -69 -62q0 -11 8 -18.5t21 -7.5q10 0 21.5 4.5t20.5 11.5l44 -69q-53 -47 -125 -47q-50 0 -78.5 24z" />
    <glyph glyph-name="uni03BC" unicode="&#x3bc;" horiz-adv-x="620" 
d="M561 494v-494h-130l-12 53q-55 -62 -128 -62q-40 0 -75 18v-223h-157v708h157v-274q0 -44 24 -70t64 -26q44 0 72 31t28 80v259h157z" />
    <glyph glyph-name="pi" unicode="&#x3c0;" horiz-adv-x="695" 
d="M563 364v-208q0 -49 46 -49q7 0 17.5 2t15.5 3l13 -112q-48 -12 -86 -12q-72 0 -116 39.5t-44 119.5v217h-134v-364h-158v364h-98v130h643v-130h-99z" />
    <glyph glyph-name="uni0400" unicode="&#x400;" horiz-adv-x="666" 
d="M235 138h386v-138h-545v700h534v-137h-375v-142h355v-132h-355v-151zM290 763l-112 144h176l74 -144h-138z" />
    <glyph glyph-name="uni0401" unicode="&#x401;" horiz-adv-x="666" 
d="M235 138h386v-138h-545v700h534v-137h-375v-142h355v-132h-355v-151zM176.5 782q-24.5 22 -24.5 60t24.5 59.5t59.5 21.5q34 0 59 -21.5t25 -59.5t-25 -60t-59 -22q-35 0 -59.5 22zM410 782q-25 22 -25 60t25 59.5t59 21.5q35 0 59.5 -21.5t24.5 -59.5t-24.5 -60
t-59.5 -22q-34 0 -59 22z" />
    <glyph glyph-name="uni0402" unicode="&#x402;" horiz-adv-x="809" 
d="M727.5 406q59.5 -59 59.5 -166q0 -115 -64.5 -180.5t-185.5 -75.5l-29 136q55 7 83.5 34.5t28.5 74.5q0 46 -28.5 72.5t-77.5 26.5q-55 0 -87.5 -30.5t-32.5 -82.5v-215h-164v558h-214v142h591v-135h-213v-155q67 55 167 55q107 0 166.5 -59z" />
    <glyph glyph-name="uni0403" unicode="&#x403;" horiz-adv-x="584" 
d="M557 700v-143h-317v-557h-164v700h481zM321 907h176l-112 -144h-138z" />
    <glyph glyph-name="uni0404" unicode="&#x404;" horiz-adv-x="704" 
d="M686 93q-113 -109 -276 -109q-111 0 -196 45.5t-131.5 128.5t-46.5 192q0 108 47 191t132 129t195 46q156 0 268 -111l-102 -96q-68 66 -161 66q-75 0 -130.5 -40.5t-77.5 -108.5h299v-141h-302q18 -73 74.5 -116.5t136.5 -43.5q50 0 95 18.5t79 53.5z" />
    <glyph glyph-name="uni0405" unicode="&#x405;" horiz-adv-x="659" 
d="M169.5 10q-79.5 26 -137.5 73l85 119q93 -73 217 -73q62 0 98.5 21t36.5 57q0 34 -34 53t-108 27q-143 16 -209.5 67t-66.5 146q0 64 36 113t101 76t150 27q73 0 142.5 -21t122.5 -59l-77 -115q-82 57 -181 57q-61 0 -97.5 -20t-36.5 -54q0 -33 31.5 -51t105.5 -27
q142 -16 212 -70.5t70 -149.5q0 -66 -37 -116.5t-104 -78t-154 -27.5q-86 0 -165.5 26z" />
    <glyph glyph-name="uni0406" unicode="&#x406;" horiz-adv-x="317" 
d="M76 700h164v-700h-164v700z" />
    <glyph glyph-name="uni0407" unicode="&#x407;" horiz-adv-x="317" 
d="M76 700h164v-700h-164v700zM-17.5 782q-24.5 22 -24.5 60t24.5 59.5t59.5 21.5q34 0 59 -21.5t25 -59.5t-25 -60t-59 -22q-35 0 -59.5 22zM216 782q-25 22 -25 60t25 59.5t59 21.5q35 0 59.5 -21.5t24.5 -59.5t-24.5 -60t-59.5 -22q-34 0 -59 22z" />
    <glyph glyph-name="uni0408" unicode="&#x408;" horiz-adv-x="708" 
d="M643 700v-403q0 -95 -38.5 -165t-109.5 -108t-165 -38q-146 0 -227.5 81t-82.5 229h160q1 -79 40 -121.5t110 -42.5q70 0 109.5 43.5t39.5 123.5v259h-204v142h368z" />
    <glyph glyph-name="uni0409" unicode="&#x409;" horiz-adv-x="1178" 
d="M1058 424q70 -62 70 -177q0 -118 -71.5 -182.5t-203.5 -64.5h-316v550h-212l-10 -206q-6 -119 -39.5 -192t-89 -110.5t-137.5 -53.5l-31 148q48 11 75 33t42.5 69.5t20.5 134.5l18 327h527v-214h157q130 0 200 -62zM934.5 171q30.5 26 30.5 73t-30.5 72.5t-88.5 25.5
h-146v-197h146q58 0 88.5 26z" />
    <glyph glyph-name="uni040A" unicode="&#x40a;" horiz-adv-x="1144" 
d="M1026 405q69 -59 69 -168q0 -112 -70.5 -174.5t-194.5 -62.5h-316v304h-274v-304h-164v700h164v-248h274v248h161v-236h160q122 0 191 -59zM904 167.5q28 22.5 28 66.5q0 43 -28 64.5t-81 21.5h-148v-175h148q53 0 81 22.5z" />
    <glyph glyph-name="uni040B" unicode="&#x40b;" horiz-adv-x="820" 
d="M710 404.5q57 -60.5 57 -172.5v-232h-164v231q0 48 -26.5 74.5t-75.5 26.5q-47 0 -77 -31.5t-30 -80.5v-220h-163v560h-215v140h591v-133h-213v-157q63 55 153 55q106 0 163 -60.5z" />
    <glyph glyph-name="uni040C" unicode="&#x40c;" horiz-adv-x="684" 
d="M698 0h-213l-246 278v-278h-163v700h163v-274l230 274h202l-295 -343zM337 907h176l-112 -144h-138z" />
    <glyph glyph-name="uni040D" unicode="&#x40d;" horiz-adv-x="778" 
d="M553 700h148v-700h-163v244l3 192l-316 -436h-149v700h163v-248l-2 -190zM334 763l-112 144h176l74 -144h-138z" />
    <glyph glyph-name="uni040E" unicode="&#x40e;" horiz-adv-x="721" 
d="M728 700l-267 -533q-35 -71 -68 -110.5t-72.5 -56.5t-95.5 -17q-40 0 -76 8.5t-63 24.5l56 127q30 -15 62 -15q55 0 84 53l6 10l-287 509h192l111 -207l68 -141l66 141l100 207h184zM194 903l99 28q7 -35 27 -51t55 -16t54.5 16t27.5 51l98 -28q-28 -150 -180 -150
q-151 0 -181 150z" />
    <glyph glyph-name="uni040F" unicode="&#x40f;" horiz-adv-x="777" 
d="M700 700v-700h-232v-144h-158v144h-234v700h164v-552h297v552h163z" />
    <glyph glyph-name="uni0410" unicode="&#x410;" horiz-adv-x="787" 
d="M617 0l-52 126h-345l-52 -126h-175l314 700h175l312 -700h-177zM394 543l-115 -276h228z" />
    <glyph glyph-name="uni0411" unicode="&#x411;" horiz-adv-x="724" 
d="M619 381q67 -56 67 -161q0 -108 -67.5 -164t-193.5 -56h-349v700h547v-141h-387v-122h189q127 0 194 -56zM503 160q25 21 25 61q0 81 -99 81h-193v-163h193q49 0 74 21z" />
    <glyph glyph-name="uni0412" unicode="&#x412;" horiz-adv-x="726" 
d="M657 298.5q30 -45.5 30 -102.5q0 -92 -70.5 -144t-194.5 -52h-346v700h346q113 0 178 -50t65 -136q0 -51 -23.5 -89.5t-65.5 -58.5q51 -22 81 -67.5zM237 565v-139h188q39 0 60 18t21 51t-21.5 51.5t-59.5 18.5h-188zM501.5 159q24.5 21 24.5 58q0 38 -24.5 58.5
t-68.5 20.5h-196v-158h196q44 0 68.5 21z" />
    <glyph glyph-name="uni0413" unicode="&#x413;" horiz-adv-x="584" 
d="M557 700v-143h-317v-557h-164v700h481z" />
    <glyph glyph-name="uni0414" unicode="&#x414;" horiz-adv-x="847" 
d="M826 148v-292h-155v144h-504v-144h-155v292h81q38 32 54.5 82.5t21.5 154.5l18 315h527v-552h112zM330 369q-4 -87 -18 -141.5t-39 -90.5h279v415h-213z" />
    <glyph glyph-name="uni0415" unicode="&#x415;" horiz-adv-x="666" 
d="M235 138h386v-138h-545v700h534v-137h-375v-142h355v-132h-355v-151z" />
    <glyph glyph-name="uni0416" unicode="&#x416;" horiz-adv-x="1011" 
d="M1025 0h-204l-236 282v-282h-159v282l-236 -282h-204l301 356l-276 344h198l217 -276v276h159v-276l217 276h197l-278 -341z" />
    <glyph glyph-name="uni0417" unicode="&#x417;" horiz-adv-x="641" 
d="M572.5 296.5q28.5 -44.5 28.5 -103.5q0 -64 -34.5 -111t-98.5 -73t-151 -26q-85 0 -164.5 28t-136.5 77l78 113q53 -39 105.5 -57.5t111.5 -18.5q62 0 97 23t35 63q0 37 -29 58.5t-78 21.5h-158v130h156q42 0 66.5 20.5t24.5 55.5q0 38 -30.5 60t-85.5 22
q-105 0 -201 -68l-78 107q57 47 131.5 73t156.5 26q78 0 137.5 -25.5t92 -71.5t32.5 -106q0 -51 -22.5 -90.5t-63.5 -60.5q50 -22 78.5 -66.5z" />
    <glyph glyph-name="uni0418" unicode="&#x418;" horiz-adv-x="778" 
d="M553 700h148v-700h-163v244l3 192l-316 -436h-149v700h163v-248l-2 -190z" />
    <glyph glyph-name="uni0419" unicode="&#x419;" horiz-adv-x="778" 
d="M553 700h148v-700h-163v244l3 192l-316 -436h-149v700h163v-248l-2 -190zM216 903l99 28q7 -35 27 -51t55 -16t54.5 16t27.5 51l98 -28q-28 -150 -180 -150q-151 0 -181 150z" />
    <glyph glyph-name="uni041A" unicode="&#x41a;" horiz-adv-x="684" 
d="M698 0h-213l-246 278v-278h-163v700h163v-274l230 274h202l-295 -343z" />
    <glyph glyph-name="uni041B" unicode="&#x41b;" horiz-adv-x="788" 
d="M712 700v-700h-163v550h-224l-10 -206q-6 -119 -39.5 -192t-89 -110.5t-137.5 -53.5l-31 148q48 11 75 33t42.5 69.5t20.5 134.5l18 327h538z" />
    <glyph glyph-name="uni041C" unicode="&#x41c;" horiz-adv-x="924" 
d="M701 700h147v-700h-163v438l-206 -252h-32l-208 253v-439h-163v700h147l239 -298z" />
    <glyph glyph-name="uni041D" unicode="&#x41d;" horiz-adv-x="777" 
d="M537 700h163v-700h-163v281h-297v-281h-164v700h164v-271h297v271z" />
    <glyph glyph-name="uni041E" unicode="&#x41e;" horiz-adv-x="826" 
d="M214.5 28.5q-85.5 45.5 -132 128.5t-46.5 193t46.5 193t132 128.5t198.5 45.5t198.5 -45.5t132 -128.5t46.5 -193t-46.5 -193t-132 -128.5t-198.5 -45.5t-198.5 45.5zM524.5 156.5q48.5 27.5 75 77.5t26.5 116t-26.5 116t-75 77.5t-111.5 27.5t-111 -27.5t-74.5 -77.5
t-26.5 -116t26.5 -116t74.5 -77.5t111 -27.5t111.5 27.5z" />
    <glyph glyph-name="uni041F" unicode="&#x41f;" horiz-adv-x="782" 
d="M76 700h630v-700h-169v549h-291v-549h-170v700z" />
    <glyph glyph-name="uni0420" unicode="&#x420;" horiz-adv-x="698" 
d="M552.5 669.5q60.5 -30.5 93.5 -87.5t33 -133t-33 -133t-93.5 -87.5t-141.5 -30.5h-171v-198h-164v700h335q81 0 141.5 -30.5zM485.5 370q30.5 29 30.5 78t-30.5 78t-82.5 29h-164v-214h164q52 0 82.5 29z" />
    <glyph glyph-name="uni0421" unicode="&#x421;" horiz-adv-x="704" 
d="M214.5 30q-85.5 46 -132 129t-46.5 191t47.5 191.5t132.5 129t194 45.5q155 0 266 -109l-101 -101q-67 64 -161 64q-63 0 -111.5 -27.5t-75 -77.5t-26.5 -115t26.5 -115t75 -77.5t111.5 -27.5q50 0 96 18t80 52l96 -107q-113 -109 -273 -109q-113 0 -198.5 46z" />
    <glyph glyph-name="uni0422" unicode="&#x422;" horiz-adv-x="622" 
d="M607 700v-143h-214v-557h-164v557h-213v143h591z" />
    <glyph glyph-name="uni0423" unicode="&#x423;" horiz-adv-x="721" 
d="M728 700l-267 -533q-35 -71 -68 -110.5t-72.5 -56.5t-95.5 -17q-40 0 -76 8.5t-63 24.5l56 127q30 -15 62 -15q55 0 84 53l6 10l-287 509h192l111 -207l68 -141l66 141l100 207h184z" />
    <glyph glyph-name="uni0424" unicode="&#x424;" horiz-adv-x="910" 
d="M833 194q-41 -69 -117 -107t-179 -40v-88h-164v88q-103 2 -179 40t-117 107t-41 161q0 90 41 158t117 106t179 39v85h164v-85q103 -1 179 -39t117 -106t41 -158q0 -92 -41 -161zM241 230q49 -45 138 -46v339q-85 -1 -136 -46.5t-51 -121.5q0 -80 49 -125zM668.5 230
q49.5 45 49.5 125q0 76 -51 121.5t-137 46.5v-339q89 1 138.5 46z" />
    <glyph glyph-name="uni0425" unicode="&#x425;" horiz-adv-x="694" 
d="M455 357l241 -357h-199l-81 122l-69 113l-67 -112l-81 -123h-201l237 350l-224 350h193l74 -118l66 -114l69 114l76 118h194z" />
    <glyph glyph-name="uni0426" unicode="&#x426;" horiz-adv-x="832" 
d="M700 148h111v-292h-155v144h-580v700h163v-552h299v552h162v-552z" />
    <glyph glyph-name="uni0427" unicode="&#x427;" horiz-adv-x="735" 
d="M659 700v-700h-164v244q-74 -47 -174 -47q-128 0 -196 75t-68 214v214h163v-203q0 -156 133 -156q69 0 105.5 37t36.5 106v216h164z" />
    <glyph glyph-name="uni0428" unicode="&#x428;" horiz-adv-x="1143" 
d="M905 700h161v-700h-990v700h162v-552h254v552h159v-552h254v552z" />
    <glyph glyph-name="uni0429" unicode="&#x429;" horiz-adv-x="1197" 
d="M1066 148h110v-292h-155v144h-945v700h162v-552h254v552h159v-552h254v552h161v-552z" />
    <glyph glyph-name="uni042A" unicode="&#x42a;" horiz-adv-x="845" 
d="M725.5 424q70.5 -62 70.5 -177q0 -118 -72 -182.5t-204 -64.5h-328v559h-176v141h339v-214h170q130 0 200.5 -62zM601.5 171q30.5 26 30.5 73t-30.5 72.5t-88.5 25.5h-159v-197h159q58 0 88.5 26z" />
    <glyph glyph-name="uni042B" unicode="&#x42b;" horiz-adv-x="998" 
d="M610 424q70 -62 70 -177q0 -118 -71.5 -182.5t-203.5 -64.5h-329v700h164v-214h170q130 0 200 -62zM486.5 171q30.5 26 30.5 73t-30.5 72.5t-88.5 25.5h-159v-197h159q58 0 88.5 26zM757 700h164v-700h-164v700z" />
    <glyph glyph-name="uni042C" unicode="&#x42c;" horiz-adv-x="730" 
d="M610 424q70 -62 70 -177q0 -118 -71.5 -182.5t-203.5 -64.5h-329v700h164v-214h170q130 0 200 -62zM486.5 171q30.5 26 30.5 73t-30.5 72.5t-88.5 25.5h-159v-197h159q58 0 88.5 26z" />
    <glyph glyph-name="uni042D" unicode="&#x42d;" horiz-adv-x="704" 
d="M489 670q85 -46 132 -129t47 -191q0 -109 -46.5 -192t-131.5 -128.5t-196 -45.5q-163 0 -275 109l96 104q34 -34 79 -53t95 -19q80 0 137 43.5t75 116.5h-303v141h300q-22 68 -77.5 108.5t-131.5 40.5q-93 0 -161 -66l-102 96q114 111 268 111q110 0 195 -46z" />
    <glyph glyph-name="uni042E" unicode="&#x42e;" horiz-adv-x="1120" 
d="M907 671.5q84 -45.5 130.5 -128.5t46.5 -193t-46.5 -193t-130.5 -128.5t-195 -45.5q-100 0 -178 37t-127 105t-62 159h-104v-284h-165v700h165v-270h106q15 88 64.5 152.5t126.5 99.5t174 35q111 0 195 -45.5zM820 157.5q47 27.5 73 77.5t26 115t-26 115t-73 77.5
t-108 27.5t-108 -27.5t-73 -77.5t-26 -115t26 -115t73 -77.5t108 -27.5t108 27.5z" />
    <glyph glyph-name="uni042F" unicode="&#x42f;" horiz-adv-x="731" 
d="M655 700v-700h-164v231h-105l-175 -231h-193l194 249q-74 25 -114.5 81t-40.5 133q0 70 32.5 123.5t91 83.5t134.5 30h340zM249 534q-29 -26 -29 -73t29 -73t82 -26h161v198h-161q-53 0 -82 -26z" />
    <glyph glyph-name="uni0430" unicode="&#x430;" horiz-adv-x="636" 
d="M577 494v-494h-136l-10 59q-63 -69 -164 -69q-69 0 -122.5 32.5t-83.5 91t-30 133.5t30 133.5t83.5 91t122.5 32.5q50 0 92 -17.5t72 -50.5l10 58h136zM389 156.5q33 34.5 33 90.5t-33 90.5t-85 34.5t-84.5 -35t-32.5 -90t32.5 -90t84.5 -35t85 34.5z" />
    <glyph glyph-name="uni0431" unicode="&#x431;" horiz-adv-x="606" 
d="M512.5 415q62.5 -64 62.5 -171q0 -118 -73 -186.5t-198 -68.5q-128 0 -200 81t-72 237v20q0 160 80 255.5t231 118.5q62 10 92 19.5t67 30.5l62 -119q-41 -33 -82 -47t-109 -22q-93 -11 -137 -43.5t-54 -99.5q26 28 67 43.5t89 15.5q112 0 174.5 -64zM390.5 151
q30.5 32 30.5 86t-30.5 85.5t-84.5 31.5t-84.5 -31.5t-30.5 -85.5t30.5 -86t84.5 -32t84.5 32z" />
    <glyph glyph-name="uni0432" unicode="&#x432;" horiz-adv-x="562" 
d="M507.5 208q20.5 -31 20.5 -68q0 -65 -47.5 -102.5t-129.5 -37.5h-292v494h290q75 0 119.5 -36t44.5 -96q0 -38 -16 -66t-45 -42q35 -15 55.5 -46zM345 373q-12 11 -34 11h-101v-79h101q22 0 34 10.5t12 28.5t-12 29zM371 155q0 41 -52 41h-109v-83h109q52 0 52 42z" />
    <glyph glyph-name="uni0433" unicode="&#x433;" horiz-adv-x="463" 
d="M59 494h374v-135h-218v-359h-156v494z" />
    <glyph glyph-name="uni0434" unicode="&#x434;" horiz-adv-x="627" 
d="M613 135v-259h-148v124h-303v-124h-149v259h52q19 23 28 51.5t14 85.5l20 222h414v-359h72zM258 265q-3 -48 -11 -79t-23 -55h162v234h-120z" />
    <glyph glyph-name="uni0435" unicode="&#x435;" horiz-adv-x="587" 
d="M437 474.5q59 -30.5 90.5 -86t31.5 -129.5q0 -24 -5 -59h-363q7 -38 41 -61.5t87 -23.5q37 0 72 11t60 31l82 -88q-42 -39 -99.5 -60t-122.5 -21q-86 0 -149 31.5t-97 89.5t-34 137q0 76 33.5 135t93.5 91.5t139 32.5q81 0 140 -30.5zM225.5 357q-29.5 -24 -33.5 -67h218
q-3 43 -31.5 67t-76.5 24q-47 0 -76.5 -24z" />
    <glyph glyph-name="uni0436" unicode="&#x436;" horiz-adv-x="794" 
d="M803 0h-187l-143 200v-200h-152v200l-149 -200h-181l190 252l-163 242h176l127 -192v192h152v-191l126 191h174l-161 -235z" />
    <glyph glyph-name="uni0437" unicode="&#x437;" horiz-adv-x="494" 
d="M440 209.5q21 -31.5 21 -71.5q0 -72 -60 -113.5t-163 -41.5q-65 0 -123 19t-94 51l62 104q37 -25 70.5 -35.5t74.5 -10.5q77 0 77 47q0 18 -14 28t-40 10h-100v110h86q28 0 42.5 10t14.5 29q0 20 -17 31t-49 11q-33 0 -64.5 -10t-67.5 -31l-60 101q96 64 212 64
q94 0 146 -38.5t52 -105.5q0 -37 -17 -65.5t-47 -43.5q37 -17 58 -48.5z" />
    <glyph glyph-name="uni0438" unicode="&#x438;" horiz-adv-x="613" 
d="M418 494h136v-494h-157v156l2 95l-203 -251h-137v494h156v-157l-2 -95z" />
    <glyph glyph-name="uni0439" unicode="&#x439;" horiz-adv-x="613" 
d="M418 494h136v-494h-157v156l2 95l-203 -251h-137v494h156v-157l-2 -95zM199 575.5q-41 35.5 -54 109.5l96 28q7 -35 22.5 -50t44.5 -15t44.5 15t22.5 50l96 -28q-14 -74 -55 -109.5t-108 -35.5q-68 0 -109 35.5z" />
    <glyph glyph-name="uni043A" unicode="&#x43a;" horiz-adv-x="551" 
d="M560 0h-194l-151 194v-194h-156v494h156v-186l137 186h179l-176 -234z" />
    <glyph glyph-name="uni043B" unicode="&#x43b;" horiz-adv-x="613" 
d="M554 494v-494h-156v359h-125l-8 -105q-7 -87 -30.5 -141t-69 -83t-120.5 -39l-23 133q31 6 48.5 19.5t27 43.5t14.5 86l19 221h423z" />
    <glyph glyph-name="uni043C" unicode="&#x43c;" horiz-adv-x="722" 
d="M515 494h148v-494h-154v267l-136 -163h-23l-137 164v-268h-154v494h148l155 -188z" />
    <glyph glyph-name="uni043D" unicode="&#x43d;" 
d="M398 494h157v-494h-157v186h-182v-186h-157v494h157v-173h182v173z" />
    <glyph glyph-name="uni043E" unicode="&#x43e;" horiz-adv-x="605" 
d="M158.5 21.5q-61.5 32.5 -94.5 90.5t-33 135t33 135t94.5 90.5t143.5 32.5t144 -32.5t95 -90.5t33 -135t-33 -135t-95 -90.5t-144 -32.5t-143.5 32.5zM386 157q32 35 32 90t-32 90t-84 35q-51 0 -83 -35t-32 -90t32 -90t83 -35q52 0 84 35z" />
    <glyph glyph-name="uni043F" unicode="&#x43f;" 
d="M59 494h496v-494h-157v359h-182v-359h-157v494z" />
    <glyph glyph-name="uni0440" unicode="&#x440;" horiz-adv-x="636" 
d="M492 471.5q54 -32.5 84 -91t30 -133.5t-30 -133.5t-84 -91t-123 -32.5q-92 0 -153 58v-262h-157v708h136l10 -58q62 68 164 68q69 0 123 -32.5zM417 156.5q33 34.5 33 90.5t-33 90.5t-85 34.5t-84.5 -35t-32.5 -90t32.5 -90t84.5 -35t85 34.5z" />
    <glyph glyph-name="uni0441" unicode="&#x441;" horiz-adv-x="518" 
d="M159.5 20.5q-61.5 31.5 -95 89.5t-33.5 136q0 77 34 135.5t95 91t141 32.5q55 0 105 -19.5t89 -57.5l-87 -95q-42 39 -99 39q-54 0 -88 -34.5t-34 -90.5t33.5 -90.5t88.5 -34.5q61 0 104 43l89 -94q-83 -82 -198 -82q-83 0 -144.5 31.5z" />
    <glyph glyph-name="uni0442" unicode="&#x442;" horiz-adv-x="502" 
d="M480 494v-135h-151v-359h-156v359h-151v135h458z" />
    <glyph glyph-name="uni0443" unicode="&#x443;" horiz-adv-x="575" 
d="M403 494h170l-308 -708h-167l96 221l-192 487h169l57 -156l54 -161l58 161z" />
    <glyph glyph-name="uni0444" unicode="&#x444;" horiz-adv-x="775" 
d="M710 112q-34 -58 -97 -90.5t-147 -33.5v-208h-156v208q-85 1 -148 33t-97 90.5t-34 135.5t34.5 135t97.5 90t147 33v195h156v-195q84 -1 147 -33.5t97 -90t34 -134.5t-34 -135zM220.5 152q35.5 -35 95.5 -35h1v259h-1q-60 0 -95.5 -35t-35.5 -94q0 -60 35.5 -95z
M554.5 152q35.5 35 35.5 95q0 59 -35.5 94t-95.5 35h-1v-259q61 0 96.5 35z" />
    <glyph glyph-name="uni0445" unicode="&#x445;" horiz-adv-x="549" 
d="M380 251l166 -251h-180l-43 71l-49 83l-49 -83l-45 -71h-177l166 251l-153 243h177l46 -75l36 -68l38 68l46 75h173z" />
    <glyph glyph-name="uni0446" unicode="&#x446;" horiz-adv-x="642" 
d="M555 135h73v-259h-149v124h-420v494h157v-359h182v359h157v-359z" />
    <glyph glyph-name="uni0447" unicode="&#x447;" horiz-adv-x="571" 
d="M512 494v-494h-152v163q-56 -34 -127 -34q-91 0 -143 55t-52 153v157h151v-140q0 -51 21 -76t64 -25q41 0 63.5 23.5t22.5 66.5v151h152z" />
    <glyph glyph-name="uni0448" unicode="&#x448;" horiz-adv-x="848" 
d="M636 494h153v-494h-730v494h152v-359h139v359h148v-359h138v359z" />
    <glyph glyph-name="uni0449" unicode="&#x449;" horiz-adv-x="875" 
d="M789 135h72v-259h-149v124h-653v494h152v-359h139v359h148v-359h138v359h153v-359z" />
    <glyph glyph-name="uni044A" unicode="&#x44a;" horiz-adv-x="639" 
d="M561 310q51 -48 51 -130q0 -87 -50.5 -133.5t-137.5 -46.5h-269v361h-136v133h292v-136h113q86 0 137 -48zM441.5 138q16.5 15 16.5 43q0 26 -16 40.5t-46 14.5h-89v-113h89q29 0 45.5 15z" />
    <glyph glyph-name="uni044B" unicode="&#x44b;" horiz-adv-x="818" 
d="M465 310q51 -48 51 -130q0 -87 -50.5 -133.5t-137.5 -46.5h-269v494h156v-136h113q86 0 137 -48zM345.5 138q16.5 15 16.5 43q0 26 -16 40.5t-46 14.5h-89v-113h89q29 0 45.5 15zM602 494h157v-494h-157v494z" />
    <glyph glyph-name="uni044C" unicode="&#x44c;" horiz-adv-x="543" 
d="M465 310q51 -48 51 -130q0 -87 -50.5 -133.5t-137.5 -46.5h-269v494h156v-136h113q86 0 137 -48zM345.5 138q16.5 15 16.5 43q0 26 -16 40.5t-46 14.5h-89v-113h89q29 0 45.5 15z" />
    <glyph glyph-name="uni044D" unicode="&#x44d;" horiz-adv-x="519" 
d="M358.5 472.5q61.5 -32.5 95.5 -91t34 -135.5q0 -78 -33 -136t-94.5 -89.5t-142.5 -31.5q-117 0 -202 82l81 88q48 -45 114 -45q45 0 77.5 22t46.5 61h-179v115h173q-15 32 -46 50t-72 18q-61 0 -105 -39l-81 87q39 38 87.5 57.5t103.5 19.5q81 0 142.5 -32.5z" />
    <glyph glyph-name="uni044E" unicode="&#x44e;" horiz-adv-x="844" 
d="M688.5 472.5q60.5 -32.5 93 -90.5t32.5 -135t-32.5 -135t-93 -90.5t-140.5 -32.5q-101 0 -169 53.5t-85 144.5h-79v-187h-156v494h156v-176h81q20 86 87.5 136.5t163.5 50.5q81 0 141.5 -32.5zM628 157q30 35 30 90t-30 90t-80 35q-49 0 -80 -35.5t-31 -89.5t31 -89.5
t80 -35.5q50 0 80 35z" />
    <glyph glyph-name="uni044F" unicode="&#x44f;" horiz-adv-x="561" 
d="M502 494v-494h-156v142h-59l-98 -142h-169l119 164q-45 22 -70 61.5t-25 91.5q0 81 53.5 129t138.5 48h266zM214 351.5q-15 -15.5 -15 -37.5q0 -23 15.5 -38t44.5 -15h90v106h-90q-30 0 -45 -15.5z" />
    <glyph glyph-name="uni0450" unicode="&#x450;" horiz-adv-x="587" 
d="M437 474.5q59 -30.5 90.5 -86t31.5 -129.5q0 -24 -5 -59h-363q7 -38 41 -61.5t87 -23.5q37 0 72 11t60 31l82 -88q-42 -39 -99.5 -60t-122.5 -21q-86 0 -149 31.5t-97 89.5t-34 137q0 76 33.5 135t93.5 91.5t139 32.5q81 0 140 -30.5zM225.5 357q-29.5 -24 -33.5 -67h218
q-3 43 -31.5 67t-76.5 24q-47 0 -76.5 -24zM244 552l-105 148h169l67 -148h-131z" />
    <glyph glyph-name="uni0451" unicode="&#x451;" horiz-adv-x="587" 
d="M437 474.5q59 -30.5 90.5 -86t31.5 -129.5q0 -24 -5 -59h-363q7 -38 41 -61.5t87 -23.5q37 0 72 11t60 31l82 -88q-42 -39 -99.5 -60t-122.5 -21q-86 0 -149 31.5t-97 89.5t-34 137q0 76 33.5 135t93.5 91.5t139 32.5q81 0 140 -30.5zM225.5 357q-29.5 -24 -33.5 -67h218
q-3 43 -31.5 67t-76.5 24q-47 0 -76.5 -24zM130.5 574.5q-23.5 20.5 -23.5 57.5q0 36 24 56.5t56 20.5q33 0 56.5 -20.5t23.5 -56.5q0 -37 -23.5 -57.5t-56.5 -20.5t-56.5 20.5zM352.5 574.5q-23.5 20.5 -23.5 57.5q0 36 24 56.5t56 20.5q33 0 57 -20.5t24 -56.5
q0 -37 -24 -57.5t-57 -20.5t-56.5 20.5z" />
    <glyph glyph-name="uni0452" unicode="&#x452;" horiz-adv-x="618" 
d="M509.5 447.5q55.5 -57.5 55.5 -176.5v-296q0 -97 -46.5 -148.5t-127.5 -51.5q-58 0 -119 32l37 112q26 -14 48 -14q27 0 39 18t12 54v293q0 50 -25.5 76t-64.5 26q-44 0 -73 -30.5t-29 -82.5v-259h-157v552h-57v92h57v56h157v-56h113v-92h-113v-106q56 59 147 59
t146.5 -57.5z" />
    <glyph glyph-name="uni0453" unicode="&#x453;" horiz-adv-x="463" 
d="M59 494h374v-135h-218v-359h-156v494zM245 700h169l-105 -148h-131z" />
    <glyph glyph-name="uni0454" unicode="&#x454;" horiz-adv-x="519" 
d="M504 71q-85 -82 -203 -82q-81 0 -142.5 31.5t-94.5 89.5t-33 136q0 77 34 135.5t95.5 91t142.5 32.5q55 0 104 -19.5t88 -57.5l-83 -89q-41 41 -104 41q-41 0 -72 -18t-46 -50h174v-115h-180q14 -39 46.5 -61t77.5 -22q34 0 62 12t48 35z" />
    <glyph glyph-name="uni0455" unicode="&#x455;" horiz-adv-x="506" 
d="M23 53l60 108q36 -22 83.5 -34t94.5 -12q65 0 65 35q0 18 -18 27t-60 12q-94 5 -149.5 47t-55.5 110q0 74 60 117.5t162 43.5q58 0 110.5 -14t90.5 -39l-61 -105q-56 32 -133 32q-76 0 -76 -36q0 -15 15.5 -23t52.5 -12q106 -8 161.5 -48t55.5 -112q0 -76 -61 -119.5
t-169 -43.5q-131 0 -228 66z" />
    <glyph glyph-name="uni0456" unicode="&#x456;" horiz-adv-x="275" 
d="M71.5 567q-25.5 24 -25.5 61q0 38 26 62t66 24t66 -24t26 -62q0 -37 -25.5 -61t-66.5 -24t-66.5 24zM59 494h157v-494h-157v494z" />
    <glyph glyph-name="uni0457" unicode="&#x457;" horiz-adv-x="275" 
d="M59 494h157v-494h-157v494zM-22 575q-23 21 -23 57q0 35 23 56t54 21q32 0 54.5 -21t22.5 -56q0 -36 -22.5 -57t-54.5 -21q-31 0 -54 21zM187.5 575q-22.5 21 -22.5 57q0 35 22.5 56t54.5 21t54.5 -21t22.5 -56q0 -36 -22.5 -57t-54.5 -21t-54.5 21z" />
    <glyph glyph-name="uni0458" unicode="&#x458;" horiz-adv-x="277" 
d="M73 567q-26 24 -26 61t26 61.5t66 24.5q41 0 67 -24.5t26 -61.5t-26 -61t-67 -24q-40 0 -66 24zM-75 -205l35 113q28 -14 51 -14q25 0 37 17.5t12 54.5v528h157v-528q0 -97 -45.5 -150t-127.5 -53q-58 0 -119 32z" />
    <glyph glyph-name="uni0459" unicode="&#x459;" horiz-adv-x="877" 
d="M799 309.5q51 -48.5 51 -129.5q0 -86 -49.5 -133t-138.5 -47h-267v359h-122l-8 -105q-7 -87 -30.5 -141t-69 -83t-120.5 -39l-23 133q31 6 48.5 19.5t27 43.5t14.5 86l19 221h416v-136h115q86 0 137 -48.5zM676.5 137.5q16.5 14.5 16.5 42.5q0 26 -16.5 40.5t-46.5 14.5
h-86v-112h86q30 0 46.5 14.5z" />
    <glyph glyph-name="uni045A" unicode="&#x45a;" horiz-adv-x="866" 
d="M788 304q51 -48 51 -127q0 -86 -50 -131.5t-138 -45.5h-262v209h-174v-209h-156v494h156v-150h174v150h156v-142h106q86 0 137 -48zM665.5 137.5q16.5 14.5 16.5 39.5q0 24 -16 37.5t-46 13.5h-79v-105h79q29 0 45.5 14.5z" />
    <glyph glyph-name="uni045B" unicode="&#x45b;" horiz-adv-x="618" 
d="M509.5 447.5q55.5 -57.5 55.5 -176.5v-271h-157v270q0 50 -25.5 76t-64.5 26q-44 0 -73 -30.5t-29 -82.5v-259h-157v552h-57v92h57v56h157v-56h113v-92h-113v-106q56 59 147 59t146.5 -57.5z" />
    <glyph glyph-name="uni045C" unicode="&#x45c;" horiz-adv-x="551" 
d="M560 0h-194l-151 194v-194h-156v494h156v-186l137 186h179l-176 -234zM266 700h169l-105 -148h-131z" />
    <glyph glyph-name="uni045D" unicode="&#x45d;" horiz-adv-x="613" 
d="M418 494h136v-494h-157v156l2 95l-203 -251h-137v494h156v-157l-2 -95zM252 552l-105 148h169l67 -148h-131z" />
    <glyph glyph-name="uni045E" unicode="&#x45e;" horiz-adv-x="575" 
d="M403 494h170l-308 -708h-167l96 221l-192 487h169l57 -156l54 -161l58 161zM179 575.5q-41 35.5 -54 109.5l96 28q7 -35 22.5 -50t44.5 -15t44.5 15t22.5 50l96 -28q-14 -74 -55 -109.5t-108 -35.5q-68 0 -109 35.5z" />
    <glyph glyph-name="uni045F" unicode="&#x45f;" horiz-adv-x="613" 
d="M554 494v-494h-173v-124h-149v124h-173v494h156v-359h182v359h157z" />
    <glyph glyph-name="uni0490" unicode="&#x490;" horiz-adv-x="584" 
d="M404 856h153v-297h-317v-559h-164v700h328v156z" />
    <glyph glyph-name="uni0491" unicode="&#x491;" horiz-adv-x="463" 
d="M297 600h136v-241h-218v-359h-156v494h238v106z" />
    <glyph glyph-name="uni04D4" unicode="&#x4d4;" horiz-adv-x="1028" 
d="M645 138h338v-138h-491v126h-257l-81 -126h-184l451 700h551v-137h-327v-142h306v-132h-306v-151zM323 271h169v171l1 103l-64 -108z" />
    <glyph glyph-name="uni04D5" unicode="&#x4d5;" horiz-adv-x="979" 
d="M842.5 474q52.5 -30 81 -85t28.5 -127q0 -30 -6 -65h-355q8 -37 42 -58.5t86 -21.5q38 0 72 11t57 31l83 -89q-40 -38 -95 -59t-115 -21q-105 0 -163 63l-7 -53h-124l-5 54q-62 -64 -157 -64q-68 0 -121 32.5t-83 91t-30 133.5t30 133.5t83 91t121 32.5q97 0 159 -65
l6 55h121l7 -53q61 63 162 63q70 0 122.5 -30zM627 363q-29 -23 -36 -63h218q-1 38 -30.5 62t-76.5 24q-46 0 -75 -23zM385 157q32 35 32 90t-32 90t-83 35t-83 -35t-32 -90t32 -90t83 -35t83 35z" />
    <glyph glyph-name="Wgrave" unicode="&#x1e80;" horiz-adv-x="1107" 
d="M919 700h179l-245 -700h-155l-66 195l-80 235l-78 -235l-67 -195h-152l-246 700h179l88 -279l57 -199l159 478h118l163 -481l61 202zM489 763l-112 144h176l74 -144h-138z" />
    <glyph glyph-name="wgrave" unicode="&#x1e81;" horiz-adv-x="829" 
d="M661 494h166l-165 -494h-149l-41 121l-57 159l-57 -159l-41 -121h-150l-165 494h166l44 -152l38 -152l113 304h104l113 -305l38 153zM360 552l-105 148h169l67 -148h-131z" />
    <glyph glyph-name="Wacute" unicode="&#x1e82;" horiz-adv-x="1107" 
d="M919 700h179l-245 -700h-155l-66 195l-80 235l-78 -235l-67 -195h-152l-246 700h179l88 -279l57 -199l159 478h118l163 -481l61 202zM548 907h176l-112 -144h-138z" />
    <glyph glyph-name="wacute" unicode="&#x1e83;" horiz-adv-x="829" 
d="M661 494h166l-165 -494h-149l-41 121l-57 159l-57 -159l-41 -121h-150l-165 494h166l44 -152l38 -152l113 304h104l113 -305l38 153zM406 700h169l-105 -148h-131z" />
    <glyph glyph-name="Wdieresis" unicode="&#x1e84;" horiz-adv-x="1107" 
d="M919 700h179l-245 -700h-155l-66 195l-80 235l-78 -235l-67 -195h-152l-246 700h179l88 -279l57 -199l159 478h118l163 -481l61 202zM375.5 782q-24.5 22 -24.5 60t24.5 59.5t59.5 21.5q34 0 59 -21.5t25 -59.5t-25 -60t-59 -22q-35 0 -59.5 22zM609 782q-25 22 -25 60
t25 59.5t59 21.5q35 0 59.5 -21.5t24.5 -59.5t-24.5 -60t-59.5 -22q-34 0 -59 22z" />
    <glyph glyph-name="wdieresis" unicode="&#x1e85;" horiz-adv-x="829" 
d="M661 494h166l-165 -494h-149l-41 121l-57 159l-57 -159l-41 -121h-150l-165 494h166l44 -152l38 -152l113 304h104l113 -305l38 153zM247.5 574.5q-23.5 20.5 -23.5 57.5q0 36 24 56.5t56 20.5q33 0 56.5 -20.5t23.5 -56.5q0 -37 -23.5 -57.5t-56.5 -20.5t-56.5 20.5z
M469.5 574.5q-23.5 20.5 -23.5 57.5q0 36 24 56.5t56 20.5q33 0 57 -20.5t24 -56.5q0 -37 -24 -57.5t-57 -20.5t-56.5 20.5z" />
    <glyph glyph-name="uni1E9E" unicode="&#x1e9e;" horiz-adv-x="734" 
d="M662.5 369.5q47.5 -59.5 47.5 -147.5q0 -70 -30.5 -122t-87.5 -80t-133 -28q-77 0 -148 23l30 134q44 -14 91 -14q55 0 85 24.5t30 69.5q0 91 -116 91h-61l-28 71l108 167h-113q-52 0 -74.5 -23t-22.5 -75v-460h-164v478q0 222 220 222h352v-86l-113 -168
q80 -17 127.5 -76.5z" />
    <glyph glyph-name="Ygrave" unicode="&#x1ef2;" horiz-adv-x="710" 
d="M717 700l-285 -426v-274h-163v274l-275 426h192l166 -272l170 272h195zM292 763l-112 144h176l74 -144h-138z" />
    <glyph glyph-name="ygrave" unicode="&#x1ef3;" horiz-adv-x="575" 
d="M403 494h170l-308 -708h-167l96 221l-192 487h169l57 -156l54 -161l58 161zM232 552l-105 148h169l67 -148h-131z" />
    <glyph glyph-name="uni2009" unicode="&#x2009;" horiz-adv-x="175" 
 />
    <glyph glyph-name="uni200B" unicode="&#x200b;" horiz-adv-x="0" 
 />
    <glyph glyph-name="endash" unicode="&#x2013;" horiz-adv-x="606" 
d="M548 354v-129h-491v129h491z" />
    <glyph glyph-name="emdash" unicode="&#x2014;" horiz-adv-x="695" 
d="M638 354v-129h-581v129h581z" />
    <glyph glyph-name="quoteleft" unicode="&#x2018;" horiz-adv-x="280" 
d="M212.5 566.5q13.5 -18.5 13.5 -43.5q0 -34 -22.5 -55.5t-58.5 -21.5t-58.5 22.5t-22.5 58.5q0 30 13 64.5t48 108.5h76l-25 -107q23 -8 36.5 -26.5z" />
    <glyph glyph-name="quoteright" unicode="&#x2019;" horiz-adv-x="275" 
d="M202.5 684.5q22.5 -22.5 22.5 -58.5q0 -30 -13 -64.5t-48 -108.5h-76l25 107q-23 8 -36.5 26.5t-13.5 43.5q0 34 22.5 55.5t58.5 21.5t58.5 -22.5z" />
    <glyph glyph-name="quotesinglbase" unicode="&#x201a;" horiz-adv-x="268" 
d="M199 135.5q25 -24.5 25 -64.5q0 -33 -14 -71.5t-53 -121.5h-85l28 120q-26 7 -41 27.5t-15 49.5q0 38 25 61.5t65 23.5t65 -24.5z" />
    <glyph glyph-name="quotedblleft" unicode="&#x201c;" horiz-adv-x="456" 
d="M200.5 577q12.5 -17 12.5 -41q0 -31 -21.5 -51.5t-54.5 -20.5q-34 0 -55 20.5t-21 54.5q0 28 12 60t45 102h71l-23 -100q22 -7 34.5 -24zM390.5 577q12.5 -17 12.5 -41q0 -32 -21 -52t-54 -20q-34 0 -55 20.5t-21 54.5q0 28 11.5 59.5t44.5 102.5h72l-23 -100
q21 -7 33.5 -24z" />
    <glyph glyph-name="quotedblright" unicode="&#x201d;" horiz-adv-x="480" 
d="M202.5 685q22.5 -22 22.5 -58q0 -30 -12.5 -63.5t-48.5 -110.5h-77l25 107q-23 8 -36.5 26.5t-13.5 43.5q0 34 23 55.5t58 21.5q37 0 59.5 -22zM406.5 685q22.5 -22 22.5 -58q0 -30 -13 -65t-48 -109h-76l25 107q-23 8 -36.5 26.5t-13.5 43.5q0 34 22.5 55.5t58.5 21.5
t58.5 -22z" />
    <glyph glyph-name="quotedblbase" unicode="&#x201e;" horiz-adv-x="454" 
d="M184.5 122q22.5 -22 22.5 -58q0 -30 -12.5 -63.5t-48.5 -110.5h-77l25 107q-23 8 -36.5 26.5t-13.5 43.5q0 34 23 55.5t58 21.5q37 0 59.5 -22zM388.5 122q22.5 -22 22.5 -58q0 -30 -13 -65t-48 -109h-76l25 107q-23 8 -36.5 26.5t-13.5 43.5q0 34 22.5 55.5t58.5 21.5
t58.5 -22z" />
    <glyph glyph-name="dagger" unicode="&#x2020;" horiz-adv-x="591" 
d="M558 517v-137h-185v-480h-155v480h-185v137h185v183h155v-183h185z" />
    <glyph glyph-name="daggerdbl" unicode="&#x2021;" horiz-adv-x="630" 
d="M580 394h-186v-189h186v-130h-186v-185h-158v185h-186v130h186v189h-186v130h186v176h158v-176h186v-130z" />
    <glyph glyph-name="bullet" unicode="&#x2022;" horiz-adv-x="424" 
d="M110 214q-40 37 -40 96t40 96t102 37t102 -37t40 -96t-40 -96t-102 -37t-102 37z" />
    <glyph glyph-name="ellipsis" unicode="&#x2026;" horiz-adv-x="771" 
d="M68.5 14q-25.5 24 -25.5 61t25.5 61t65.5 24q39 0 64.5 -24t25.5 -61t-25.5 -61t-64.5 -24q-40 0 -65.5 24zM320.5 14q-25.5 24 -25.5 61t25.5 61t65.5 24q39 0 64.5 -24t25.5 -61t-25.5 -61t-64.5 -24q-40 0 -65.5 24zM571.5 14q-25.5 24 -25.5 61t25.5 61t65.5 24
q39 0 64.5 -24t25.5 -61t-25.5 -61t-64.5 -24q-40 0 -65.5 24z" />
    <glyph glyph-name="perthousand" unicode="&#x2030;" horiz-adv-x="1252" 
d="M83 429q-47 45 -47 117t47 116.5t122 44.5q77 0 123.5 -44t46.5 -117t-47 -117.5t-123 -44.5q-75 0 -122 45zM584 700h148l-456 -700h-148zM245.5 505.5q15.5 15.5 15.5 40.5t-15.5 40.5t-40.5 15.5t-40 -15.5t-15 -40.5t15 -40.5t40 -15.5t40.5 15.5zM533 37.5
q-47 44.5 -47 116.5t47 117t123 45t122.5 -44.5t46.5 -117.5t-46.5 -117t-122.5 -44t-123 44.5zM924.5 37.5q-47.5 44.5 -47.5 116.5t47.5 117t122.5 45q76 0 122.5 -44.5t46.5 -117.5t-46.5 -117t-122.5 -44q-75 0 -122.5 44.5zM696 113.5q15 15.5 15 40.5t-15 40.5
t-40 15.5t-40.5 -15.5t-15.5 -40.5t15.5 -40.5t40.5 -15.5t40 15.5zM1087 113.5q15 15.5 15 40.5t-15 40.5t-40 15.5t-40.5 -15.5t-15.5 -40.5t15.5 -40.5t40.5 -15.5t40 15.5z" />
    <glyph glyph-name="minute" unicode="&#x2032;" horiz-adv-x="241" 
d="M59 700h157l-53 -252h-125z" />
    <glyph glyph-name="second" unicode="&#x2033;" horiz-adv-x="455" 
d="M273 700h157l-53 -252h-125zM59 700h157l-53 -252h-125z" />
    <glyph glyph-name="guilsinglleft" unicode="&#x2039;" horiz-adv-x="373" 
d="M339 518l-143 -224l143 -224h-167l-140 224l140 224h167z" />
    <glyph glyph-name="guilsinglright" unicode="&#x203a;" horiz-adv-x="374" 
d="M202 518l139 -224l-139 -224h-167l142 224l-142 224h167z" />
    <glyph glyph-name="uni203D" unicode="&#x203d;" horiz-adv-x="600" 
d="M429.5 680q61.5 -27 92.5 -73.5t31 -105.5q0 -62 -31.5 -108t-94.5 -73q-39 -17 -57 -35t-18 -46v-23h-132l-7 282h135l-2 -94q9 8 21 15q22 13 31 29.5t9 41.5q0 37 -32.5 60t-92.5 23q-61 0 -97 -24.5t-37 -68.5h-156q3 108 79.5 167.5t210.5 59.5q86 0 147.5 -27z
M353.5 136q25.5 -24 25.5 -61t-25.5 -61t-64.5 -24t-64.5 24t-25.5 61t25.5 61t64.5 24t64.5 -24z" />
    <glyph glyph-name="fraction" unicode="&#x2044;" horiz-adv-x="173" 
d="M224 700h111l-387 -700h-110z" />
    <glyph glyph-name="uni2070" unicode="&#x2070;" horiz-adv-x="403" 
d="M117 459.5q-38 20.5 -60 57.5t-22 85v57q0 48 22 85t60 57.5t85 20.5q46 0 84 -20.5t60 -57.5t22 -85v-57q0 -48 -22 -85t-60 -57.5t-84 -20.5q-47 0 -85 20.5zM251.5 551q20.5 20 20.5 52v55q0 33 -20.5 53t-50.5 20t-49.5 -20t-19.5 -53v-55q0 -32 20 -52t49 -20
q30 0 50.5 20z" />
    <glyph glyph-name="uni2074" unicode="&#x2074;" horiz-adv-x="393" 
d="M357 594v-85h-43v-63h-98v63h-190l-4 83l167 223h125v-221h43zM126 594h90v120z" />
    <glyph glyph-name="uni2075" unicode="&#x2075;" horiz-adv-x="375" 
d="M306 657q40 -31 40 -93q0 -58 -41.5 -91.5t-108.5 -33.5q-71 0 -113.5 32.5t-42.5 92.5h98q2 -18 17 -28t37 -10q25 0 39.5 10.5t14.5 28.5q0 19 -14 30t-40 11h-147v209h275v-86h-182v-41h54q74 0 114 -31z" />
    <glyph glyph-name="uni2076" unicode="&#x2076;" horiz-adv-x="383" 
d="M311.5 651q39.5 -34 39.5 -87q0 -55 -43.5 -90t-112.5 -35q-67 0 -110.5 35t-43.5 90v138q0 53 42 86.5t109 33.5q65 0 106.5 -31t43.5 -82h-94q-3 32 -53 32q-27 0 -41.5 -10t-14.5 -29v-34q32 17 72 17q61 0 100.5 -34zM236 534q15 11 15 30t-15 29.5t-41 10.5
t-41 -10.5t-15 -29.5t15 -30t41 -11t41 11z" />
    <glyph glyph-name="uni2077" unicode="&#x2077;" horiz-adv-x="325" 
d="M308 815l5 -42l-155 -327h-110l136 279h-157v90h281z" />
    <glyph glyph-name="uni2078" unicode="&#x2078;" horiz-adv-x="391" 
d="M345 605.5q14 -23.5 14 -52.5q0 -52 -44.5 -83t-118.5 -31q-75 0 -119 31t-44 83q0 29 14 53t37 36q-19 11 -29.5 30t-10.5 42q0 49 42 78.5t110 29.5t109.5 -29.5t41.5 -78.5q0 -23 -10.5 -42t-29.5 -30q24 -13 38 -36.5zM156.5 737q-14.5 -10 -14.5 -27t14.5 -26.5
t39.5 -9.5t39 9.5t14 26.5t-14 27t-39 10t-39.5 -10zM242.5 530.5q16.5 10.5 16.5 29.5t-16.5 29.5t-46.5 10.5t-47 -10.5t-17 -29.5t17 -29.5t47 -10.5t46.5 10.5z" />
    <glyph glyph-name="uni2079" unicode="&#x2079;" horiz-adv-x="383" 
d="M300 787.5q43 -34.5 43 -88.5v-139q0 -54 -43 -87.5t-111 -33.5q-71 0 -110.5 30.5t-41.5 86.5h96q2 -16 16.5 -25t37.5 -9q26 0 41.5 10.5t15.5 29.5v33q-32 -17 -71 -17q-62 0 -101 34t-39 87q0 55 43 89t113 34q68 0 111 -34.5zM230 670q15 10 15 29q0 18 -15 28
t-41 10t-41 -10t-15 -28q0 -19 15 -29t41 -10t41 10z" />
    <glyph glyph-name="uni2080" unicode="&#x2080;" horiz-adv-x="403" 
d="M117 -66.5q-38 20.5 -60 57.5t-22 85v57q0 48 22 85t60 57.5t85 20.5q46 0 84 -20.5t60 -57.5t22 -85v-57q0 -48 -22 -85t-60 -57.5t-84 -20.5q-47 0 -85 20.5zM251.5 25q20.5 20 20.5 52v55q0 33 -20.5 53t-50.5 20t-49.5 -20t-19.5 -53v-55q0 -32 20 -52t49 -20
q30 0 50.5 20z" />
    <glyph glyph-name="uni2081" unicode="&#x2081;" horiz-adv-x="288" 
d="M194 5h63v-85h-227v85h66v183l-52 -13v84l140 35h10v-289z" />
    <glyph glyph-name="uni2082" unicode="&#x2082;" horiz-adv-x="374" 
d="M137 11h198v-91h-299v95q0 58 34 87t98 37q37 4 54 12.5t17 25.5q0 16 -14 25t-37 9q-22 0 -37 -9t-17 -25h-96q0 52 42 85.5t106 33.5q71 0 112 -32t41 -89q0 -53 -32 -79.5t-91 -32.5q-42 -5 -60.5 -15t-18.5 -33v-4z" />
    <glyph glyph-name="uni2083" unicode="&#x2083;" horiz-adv-x="378" 
d="M332 78.5q14 -21.5 14 -48.5q0 -54 -43 -85.5t-116 -31.5q-68 0 -113 34.5t-45 86.5h105q3 -33 55 -33q26 0 41.5 9.5t15.5 26.5q0 36 -56 36h-60v75h57q55 0 55 32q0 16 -15 26t-41 10q-23 0 -39.5 -10t-19.5 -26h-91q1 51 43 83.5t107 32.5t108 -32.5t43 -82.5
q0 -48 -42 -71q23 -10 37 -31.5z" />
    <glyph glyph-name="uni2084" unicode="&#x2084;" horiz-adv-x="393" 
d="M357 68v-85h-43v-63h-98v63h-190l-4 83l167 223h125v-221h43zM126 68h90v120z" />
    <glyph glyph-name="uni2085" unicode="&#x2085;" horiz-adv-x="375" 
d="M306 131q40 -31 40 -93q0 -58 -41.5 -91.5t-108.5 -33.5q-71 0 -113.5 32.5t-42.5 92.5h98q2 -18 17 -28t37 -10q25 0 39.5 10.5t14.5 28.5q0 19 -14 30t-40 11h-147v209h275v-86h-182v-41h54q74 0 114 -31z" />
    <glyph glyph-name="uni2086" unicode="&#x2086;" horiz-adv-x="383" 
d="M311.5 125q39.5 -34 39.5 -87q0 -55 -43.5 -90t-112.5 -35q-67 0 -110.5 35t-43.5 90v138q0 53 42 86.5t109 33.5q65 0 106.5 -31t43.5 -82h-94q-3 32 -53 32q-27 0 -41.5 -10t-14.5 -29v-34q32 17 72 17q61 0 100.5 -34zM236 8q15 11 15 30t-15 29.5t-41 10.5t-41 -10.5
t-15 -29.5t15 -30t41 -11t41 11z" />
    <glyph glyph-name="uni2087" unicode="&#x2087;" horiz-adv-x="325" 
d="M308 289l5 -42l-155 -327h-110l136 279h-157v90h281z" />
    <glyph glyph-name="uni2088" unicode="&#x2088;" horiz-adv-x="391" 
d="M345 79.5q14 -23.5 14 -52.5q0 -52 -44.5 -83t-118.5 -31q-75 0 -119 31t-44 83q0 29 14 53t37 36q-19 11 -29.5 30t-10.5 42q0 49 42 78.5t110 29.5t109.5 -29.5t41.5 -78.5q0 -23 -10.5 -42t-29.5 -30q24 -13 38 -36.5zM156.5 211q-14.5 -10 -14.5 -27t14.5 -26.5
t39.5 -9.5t39 9.5t14 26.5t-14 27t-39 10t-39.5 -10zM242.5 4.5q16.5 10.5 16.5 29.5t-16.5 29.5t-46.5 10.5t-47 -10.5t-17 -29.5t17 -29.5t47 -10.5t46.5 10.5z" />
    <glyph glyph-name="uni2089" unicode="&#x2089;" horiz-adv-x="383" 
d="M300 261.5q43 -34.5 43 -88.5v-139q0 -54 -43 -87.5t-111 -33.5q-71 0 -110.5 30.5t-41.5 86.5h96q2 -16 16.5 -25t37.5 -9q26 0 41.5 10.5t15.5 29.5v33q-32 -17 -71 -17q-62 0 -101 34t-39 87q0 55 43 89t113 34q68 0 111 -34.5zM230 144q15 10 15 29q0 18 -15 28
t-41 10t-41 -10t-15 -28q0 -19 15 -29t41 -10t41 10z" />
    <glyph glyph-name="Euro" unicode="&#x20ac;" horiz-adv-x="634" 
d="M597 9q-60 -20 -133 -20q-136 0 -223.5 58t-119.5 169h-101l25 106h59q-1 9 -1 28q0 17 1 26h-84l25 107h78q35 107 122.5 167.5t210.5 60.5q69 0 132 -23l-43 -125q-45 14 -89 14q-52 0 -94 -25.5t-67 -70.5h202l-25 -103h-207q-1 -9 -1 -28q0 -20 1 -29h194l-24 -104
h-141q54 -92 184 -92q38 0 80 12z" />
    <glyph glyph-name="uni20B4" unicode="&#x20b4;" horiz-adv-x="693" 
d="M673 472v-95h-659v95h423q9 15 9 34q0 36 -30 54.5t-80 18.5q-44 0 -87.5 -14.5t-70.5 -37.5l-78 107q58 43 114.5 62t126.5 19q81 0 142.5 -25.5t95 -73t33.5 -109.5q0 -18 -3 -35h64zM14 342h659v-95h-426q-9 -19 -9 -39q0 -37 31 -58.5t86 -21.5q61 0 111 20t93 61
l89 -111q-118 -114 -292 -114q-136 0 -211 59t-75 161q0 21 5 43h-61v95z" />
    <glyph glyph-name="uni20BA" unicode="&#x20ba;" 
d="M606 290v-53q0 -111 -62 -174t-167 -63h-270v228l-91 -34v121l91 34v65l-91 -34v121l91 34v165h165v-104l184 68v-121l-184 -68v-66l184 68v-121l-184 -68v-134h73q50 0 74 22t24 72v42h163z" />
    <glyph glyph-name="uni20BD" unicode="&#x20bd;" horiz-adv-x="660" 
d="M248 236v-51h144v-107h-144v-78h-171v78h-76v107h76v51h-76v130h76v334h305q78 0 136.5 -28.5t90 -81.5t31.5 -124q0 -106 -69.5 -168t-188.5 -62h-134zM246 366h125q47 0 73.5 25t26.5 69t-26.5 69t-73.5 25h-125v-188z" />
    <glyph glyph-name="uni2113" unicode="&#x2113;" horiz-adv-x="517" 
d="M416 145l39 -119q-77 -32 -155 -32q-100 0 -152 45.5t-54 132.5l-21 -3q-46 -6 -50 -6v133q29 3 71 11v234q0 79 50 124.5t137 45.5q89 0 139 -49t50 -137q0 -118 -59 -197.5t-180 -121.5q5 -41 26.5 -60.5t64.5 -19.5q47 0 94 19zM228 347q57 26 81 67t24 104
q0 65 -51 65q-26 0 -40 -15.5t-14 -45.5v-175z" />
    <glyph glyph-name="uni2116" unicode="&#x2116;" horiz-adv-x="1133" 
d="M822.5 456.5q-43.5 39.5 -43.5 104.5t43.5 105.5t113.5 40.5q71 0 114.5 -40.5t43.5 -105.5t-43.5 -104.5t-114.5 -39.5q-70 0 -113.5 39.5zM538 452v248h169v-700h-142l-322 415l3 -171v-244h-170v700h142l322 -418zM898 599.5q-15 -14.5 -15 -38.5q0 -23 15 -37.5
t38 -14.5q24 0 39 14.5t15 37.5q0 24 -14.5 38.5t-39.5 14.5q-23 0 -38 -14.5zM793 277v92h287v-92h-287z" />
    <glyph glyph-name="uni2117" unicode="&#x2117;" horiz-adv-x="819" 
d="M601 669.5q83 -45.5 129 -128.5t46 -191t-46 -191t-129 -128.5t-191 -45.5t-191.5 45.5t-130 128.5t-46.5 191t46.5 191t130 128.5t191.5 45.5t191 -45.5zM549.5 111q60.5 34 93.5 95.5t33 143.5t-33 143.5t-93.5 95.5t-139.5 34t-139.5 -34t-94 -96t-33.5 -143
t33.5 -143t94 -96t139.5 -34t139.5 34zM552.5 485.5q38.5 -36.5 38.5 -93.5q0 -56 -38.5 -92.5t-97.5 -36.5h-78v-102h-96v361h174q59 0 97.5 -36.5zM482.5 357.5q12.5 12.5 12.5 32.5t-12.5 32.5t-33.5 12.5h-72v-90h72q21 0 33.5 12.5z" />
    <glyph glyph-name="trademark" unicode="&#x2122;" horiz-adv-x="835" 
d="M61 606v94h293v-94h-93v-206h-107v206h-93zM661 700h103v-300h-105v71l3 83l-67 -90h-25l-65 89l3 -82v-71h-106v300h103l78 -108z" />
    <glyph glyph-name="uni2126" unicode="&#x2126;" horiz-adv-x="833" 
d="M757 239q-27 -61 -75 -102h87v-137h-294v135q70 24 110 83t40 139q0 63 -26.5 112t-74 76.5t-107.5 27.5t-107.5 -28t-74 -77t-26.5 -111q0 -80 39.5 -139t109.5 -83v-135h-293v137h87q-47 41 -74.5 102.5t-27.5 130.5q0 102 46 180.5t129.5 122t191.5 43.5t191.5 -43.5
t129.5 -122t46 -180.5q0 -70 -27 -131z" />
    <glyph glyph-name="estimated" unicode="&#x212e;" horiz-adv-x="635" 
d="M185 263v-176q60 -47 141 -47q64 0 110 22.5t80 70.5l37 -29q-41 -58 -96 -84.5t-131 -26.5q-80 0 -141 36.5t-94 103.5t-33 156t33 156.5t93.5 104t140.5 36.5q129 0 196 -72.5t67 -211.5q0 -26 -1 -39h-402zM325 539q-84 0 -140 -47v-182h283v188q-53 41 -143 41z" />
    <glyph glyph-name="uni2150" unicode="&#x2150;" horiz-adv-x="816" 
d="M194 416h63v-85h-227v85h66v183l-52 -13v84l140 35h10v-289zM542 700h111l-387 -700h-110zM799 369l5 -42l-155 -327h-110l136 279h-157v90h281z" />
    <glyph glyph-name="uni2151" unicode="&#x2151;" horiz-adv-x="875" 
d="M194 416h63v-85h-227v85h66v183l-52 -13v84l140 35h10v-289zM542 700h111l-387 -700h-110zM791 341.5q43 -34.5 43 -88.5v-139q0 -54 -43 -87.5t-111 -33.5q-71 0 -110.5 30.5t-41.5 86.5h96q2 -16 16.5 -25t37.5 -9q26 0 41.5 10.5t15.5 29.5v33q-32 -17 -71 -17
q-62 0 -101 34t-39 87q0 55 43 89t113 34q68 0 111 -34.5zM721 224q15 10 15 29q0 18 -15 28t-41 10t-41 -10t-15 -28q0 -19 15 -29t41 -10t41 10z" />
    <glyph glyph-name="uni2153" unicode="&#x2153;" horiz-adv-x="870" 
d="M194 416h63v-85h-227v85h66v183l-52 -13v84l140 35h10v-289zM542 700h111l-387 -700h-110zM823 158.5q14 -21.5 14 -48.5q0 -54 -43 -85.5t-116 -31.5q-68 0 -113 34.5t-45 86.5h105q3 -33 55 -33q26 0 41.5 9.5t15.5 26.5q0 36 -56 36h-60v75h57q55 0 55 32q0 16 -15 26
t-41 10q-23 0 -39.5 -10t-19.5 -26h-91q1 51 43 83.5t107 32.5t108 -32.5t43 -82.5q0 -48 -42 -71q23 -10 37 -31.5z" />
    <glyph glyph-name="uni2154" unicode="&#x2154;" horiz-adv-x="926" 
d="M137 422h198v-91h-299v95q0 58 34 87t98 37q37 4 54 12.5t17 25.5q0 16 -14 25t-37 9q-22 0 -37 -9t-17 -25h-96q0 52 42 85.5t106 33.5q71 0 112 -32t41 -89q0 -53 -32 -79.5t-91 -32.5q-42 -5 -60.5 -15t-18.5 -33v-4zM598 700h111l-387 -700h-110zM879 158.5
q14 -21.5 14 -48.5q0 -54 -43 -85.5t-116 -31.5q-68 0 -113 34.5t-45 86.5h105q3 -33 55 -33q26 0 41.5 9.5t15.5 26.5q0 36 -56 36h-60v75h57q55 0 55 32q0 16 -15 26t-41 10q-23 0 -39.5 -10t-19.5 -26h-91q1 51 43 83.5t107 32.5t108 -32.5t43 -82.5q0 -48 -42 -71
q23 -10 37 -31.5z" />
    <glyph glyph-name="uni2155" unicode="&#x2155;" horiz-adv-x="866" 
d="M194 416h63v-85h-227v85h66v183l-52 -13v84l140 35h10v-289zM542 700h111l-387 -700h-110zM797 211q40 -31 40 -93q0 -58 -41.5 -91.5t-108.5 -33.5q-71 0 -113.5 32.5t-42.5 92.5h98q2 -18 17 -28t37 -10q25 0 39.5 10.5t14.5 28.5q0 19 -14 30t-40 11h-147v209h275v-86
h-182v-41h54q74 0 114 -31z" />
    <glyph glyph-name="uni2156" unicode="&#x2156;" horiz-adv-x="922" 
d="M137 422h198v-91h-299v95q0 58 34 87t98 37q37 4 54 12.5t17 25.5q0 16 -14 25t-37 9q-22 0 -37 -9t-17 -25h-96q0 52 42 85.5t106 33.5q71 0 112 -32t41 -89q0 -53 -32 -79.5t-91 -32.5q-42 -5 -60.5 -15t-18.5 -33v-4zM598 700h111l-387 -700h-110zM853 211
q40 -31 40 -93q0 -58 -41.5 -91.5t-108.5 -33.5q-71 0 -113.5 32.5t-42.5 92.5h98q2 -18 17 -28t37 -10q25 0 39.5 10.5t14.5 28.5q0 19 -14 30t-40 11h-147v209h275v-86h-182v-41h54q74 0 114 -31z" />
    <glyph glyph-name="uni2157" unicode="&#x2157;" horiz-adv-x="926" 
d="M332 489.5q14 -21.5 14 -48.5q0 -54 -43 -85.5t-116 -31.5q-68 0 -113 34.5t-45 86.5h105q3 -33 55 -33q26 0 41.5 9.5t15.5 26.5q0 36 -56 36h-60v75h57q55 0 55 32q0 16 -15 26t-41 10q-23 0 -39.5 -10t-19.5 -26h-91q1 51 43 83.5t107 32.5t108 -32.5t43 -82.5
q0 -48 -42 -71q23 -10 37 -31.5zM602 700h111l-387 -700h-110zM857 211q40 -31 40 -93q0 -58 -41.5 -91.5t-108.5 -33.5q-71 0 -113.5 32.5t-42.5 92.5h98q2 -18 17 -28t37 -10q25 0 39.5 10.5t14.5 28.5q0 19 -14 30t-40 11h-147v209h275v-86h-182v-41h54q74 0 114 -31z
" />
    <glyph glyph-name="uni2158" unicode="&#x2158;" horiz-adv-x="941" 
d="M357 479v-85h-43v-63h-98v63h-190l-4 83l167 223h125v-221h43zM126 479h90v120zM617 700h111l-387 -700h-110zM872 211q40 -31 40 -93q0 -58 -41.5 -91.5t-108.5 -33.5q-71 0 -113.5 32.5t-42.5 92.5h98q2 -18 17 -28t37 -10q25 0 39.5 10.5t14.5 28.5q0 19 -14 30
t-40 11h-147v209h275v-86h-182v-41h54q74 0 114 -31z" />
    <glyph glyph-name="uni2159" unicode="&#x2159;" horiz-adv-x="875" 
d="M194 416h63v-85h-227v85h66v183l-52 -13v84l140 35h10v-289zM542 700h111l-387 -700h-110zM802.5 205q39.5 -34 39.5 -87q0 -55 -43.5 -90t-112.5 -35q-67 0 -110.5 35t-43.5 90v138q0 53 42 86.5t109 33.5q65 0 106.5 -31t43.5 -82h-94q-3 32 -53 32q-27 0 -41.5 -10
t-14.5 -29v-34q32 17 72 17q61 0 100.5 -34zM727 88q15 11 15 30t-15 29.5t-41 10.5t-41 -10.5t-15 -29.5t15 -30t41 -11t41 11z" />
    <glyph glyph-name="uni215A" unicode="&#x215a;" horiz-adv-x="932" 
d="M306 542q40 -31 40 -93q0 -58 -41.5 -91.5t-108.5 -33.5q-71 0 -113.5 32.5t-42.5 92.5h98q2 -18 17 -28t37 -10q25 0 39.5 10.5t14.5 28.5q0 19 -14 30t-40 11h-147v209h275v-86h-182v-41h54q74 0 114 -31zM599 700h111l-387 -700h-110zM859.5 205q39.5 -34 39.5 -87
q0 -55 -43.5 -90t-112.5 -35q-67 0 -110.5 35t-43.5 90v138q0 53 42 86.5t109 33.5q65 0 106.5 -31t43.5 -82h-94q-3 32 -53 32q-27 0 -41.5 -10t-14.5 -29v-34q32 17 72 17q61 0 100.5 -34zM784 88q15 11 15 30t-15 29.5t-41 10.5t-41 -10.5t-15 -29.5t15 -30t41 -11t41 11
z" />
    <glyph glyph-name="oneeighth" unicode="&#x215b;" horiz-adv-x="882" 
d="M194 416h63v-85h-227v85h66v183l-52 -13v84l140 35h10v-289zM542 700h111l-387 -700h-110zM836 159.5q14 -23.5 14 -52.5q0 -52 -44.5 -83t-118.5 -31q-75 0 -119 31t-44 83q0 29 14 53t37 36q-19 11 -29.5 30t-10.5 42q0 49 42 78.5t110 29.5t109.5 -29.5t41.5 -78.5
q0 -23 -10.5 -42t-29.5 -30q24 -13 38 -36.5zM647.5 291q-14.5 -10 -14.5 -27t14.5 -26.5t39.5 -9.5t39 9.5t14 26.5t-14 27t-39 10t-39.5 -10zM733.5 84.5q16.5 10.5 16.5 29.5t-16.5 29.5t-46.5 10.5t-47 -10.5t-17 -29.5t17 -29.5t47 -10.5t46.5 10.5z" />
    <glyph glyph-name="threeeighths" unicode="&#x215c;" horiz-adv-x="942" 
d="M332 489.5q14 -21.5 14 -48.5q0 -54 -43 -85.5t-116 -31.5q-68 0 -113 34.5t-45 86.5h105q3 -33 55 -33q26 0 41.5 9.5t15.5 26.5q0 36 -56 36h-60v75h57q55 0 55 32q0 16 -15 26t-41 10q-23 0 -39.5 -10t-19.5 -26h-91q1 51 43 83.5t107 32.5t108 -32.5t43 -82.5
q0 -48 -42 -71q23 -10 37 -31.5zM602 700h111l-387 -700h-110zM896 159.5q14 -23.5 14 -52.5q0 -52 -44.5 -83t-118.5 -31q-75 0 -119 31t-44 83q0 29 14 53t37 36q-19 11 -29.5 30t-10.5 42q0 49 42 78.5t110 29.5t109.5 -29.5t41.5 -78.5q0 -23 -10.5 -42t-29.5 -30
q24 -13 38 -36.5zM707.5 291q-14.5 -10 -14.5 -27t14.5 -26.5t39.5 -9.5t39 9.5t14 26.5t-14 27t-39 10t-39.5 -10zM793.5 84.5q16.5 10.5 16.5 29.5t-16.5 29.5t-46.5 10.5t-47 -10.5t-17 -29.5t17 -29.5t47 -10.5t46.5 10.5z" />
    <glyph glyph-name="fiveeighths" unicode="&#x215d;" horiz-adv-x="939" 
d="M306 542q40 -31 40 -93q0 -58 -41.5 -91.5t-108.5 -33.5q-71 0 -113.5 32.5t-42.5 92.5h98q2 -18 17 -28t37 -10q25 0 39.5 10.5t14.5 28.5q0 19 -14 30t-40 11h-147v209h275v-86h-182v-41h54q74 0 114 -31zM599 700h111l-387 -700h-110zM893 159.5q14 -23.5 14 -52.5
q0 -52 -44.5 -83t-118.5 -31q-75 0 -119 31t-44 83q0 29 14 53t37 36q-19 11 -29.5 30t-10.5 42q0 49 42 78.5t110 29.5t109.5 -29.5t41.5 -78.5q0 -23 -10.5 -42t-29.5 -30q24 -13 38 -36.5zM704.5 291q-14.5 -10 -14.5 -27t14.5 -26.5t39.5 -9.5t39 9.5t14 26.5t-14 27
t-39 10t-39.5 -10zM790.5 84.5q16.5 10.5 16.5 29.5t-16.5 29.5t-46.5 10.5t-47 -10.5t-17 -29.5t17 -29.5t47 -10.5t46.5 10.5z" />
    <glyph glyph-name="seveneighths" unicode="&#x215e;" horiz-adv-x="864" 
d="M308 700l5 -42l-155 -327h-110l136 279h-157v90h281zM524 700h111l-387 -700h-110zM818 159.5q14 -23.5 14 -52.5q0 -52 -44.5 -83t-118.5 -31q-75 0 -119 31t-44 83q0 29 14 53t37 36q-19 11 -29.5 30t-10.5 42q0 49 42 78.5t110 29.5t109.5 -29.5t41.5 -78.5
q0 -23 -10.5 -42t-29.5 -30q24 -13 38 -36.5zM629.5 291q-14.5 -10 -14.5 -27t14.5 -26.5t39.5 -9.5t39 9.5t14 26.5t-14 27t-39 10t-39.5 -10zM715.5 84.5q16.5 10.5 16.5 29.5t-16.5 29.5t-46.5 10.5t-47 -10.5t-17 -29.5t17 -29.5t47 -10.5t46.5 10.5z" />
    <glyph glyph-name="arrowleft" unicode="&#x2190;" horiz-adv-x="636" 
d="M579 410v-120h-332l103 -103l-78 -77l-240 240l240 240l78 -77l-103 -103h332z" />
    <glyph glyph-name="arrowup" unicode="&#x2191;" horiz-adv-x="540" 
d="M510 392l-77 -78l-103 103v-331h-120v331l-103 -103l-77 78l240 240z" />
    <glyph glyph-name="arrowright" unicode="&#x2192;" horiz-adv-x="636" 
d="M364 590l240 -240l-240 -240l-78 77l103 103h-331v120h331l-103 103z" />
    <glyph glyph-name="arrowdown" unicode="&#x2193;" horiz-adv-x="540" 
d="M433 403l77 -78l-240 -240l-240 240l77 78l103 -103v332h120v-332z" />
    <glyph glyph-name="uni2196" unicode="&#x2196;" horiz-adv-x="519" 
d="M485 203l-85 -85l-234 234v-145l-110 1v339h340v-109h-146z" />
    <glyph glyph-name="uni2197" unicode="&#x2197;" horiz-adv-x="520" 
d="M124 547l339 1v-340l-110 -1v146l-234 -234l-85 84l235 235h-146z" />
    <glyph glyph-name="uni2198" unicode="&#x2198;" horiz-adv-x="519" 
d="M353 511l110 -1v-340l-339 1l-1 109h146l-235 235l85 84l234 -234v146z" />
    <glyph glyph-name="uni2199" unicode="&#x2199;" horiz-adv-x="520" 
d="M486 514l-234 -234h145l-1 -110h-339v340h109v-146l235 235z" />
    <glyph glyph-name="partialdiff" unicode="&#x2202;" horiz-adv-x="586" 
d="M366.5 625q88.5 -60 137.5 -156.5t49 -213.5q0 -81 -31.5 -141t-90.5 -92.5t-139 -32.5q-78 0 -137 30.5t-91.5 87t-32.5 130.5q0 71 30 126t83.5 85.5t122.5 30.5q56 0 94 -23q-33 46 -93.5 79.5t-131.5 43.5l28 119q114 -13 202.5 -73zM370.5 151.5
q29.5 32.5 29.5 85.5t-29.5 85t-78.5 32t-78.5 -32t-29.5 -85t29.5 -85.5t78.5 -32.5t78.5 32.5z" />
    <glyph glyph-name="emptyset" unicode="&#x2205;" horiz-adv-x="689" 
d="M630 425.5q28 -60.5 28 -132.5q0 -87 -40.5 -156.5t-112 -108.5t-161.5 -39q-59 0 -114 19l-35 -56h-125l67 108q-50 41 -78 101t-28 132q0 87 40 156.5t111.5 108.5t161.5 39q64 0 115 -19l34 56h126l-67 -107q50 -41 78 -101.5zM254.5 445.5q-39.5 -22.5 -62 -62.5
t-22.5 -90q0 -70 42 -118l176 288q-23 5 -44 5q-50 0 -89.5 -22.5zM434 140.5q40 22.5 62.5 62.5t22.5 90q0 70 -42 117l-176 -287q22 -5 43 -5q50 0 90 22.5z" />
    <glyph glyph-name="uni2206" unicode="&#x2206;" horiz-adv-x="780" 
d="M476 700l312 -700h-795l311 700h172zM390 529l-165 -390h330z" />
    <glyph glyph-name="product" unicode="&#x220f;" horiz-adv-x="693" 
d="M76 700h541v-883h-164v739h-213v-739h-164v883z" />
    <glyph glyph-name="summation" unicode="&#x2211;" horiz-adv-x="612" 
d="M261 143h301v-143h-519v89l201 270l-192 263v78h504v-137h-285l130 -183v-41z" />
    <glyph glyph-name="minus" unicode="&#x2212;" horiz-adv-x="524" 
d="M58 394h408v-133h-408v133z" />
    <glyph glyph-name="uni2215" unicode="&#x2215;" horiz-adv-x="491" 
d="M367 700h140l-384 -700h-140z" />
    <glyph glyph-name="uni2219" unicode="&#x2219;" horiz-adv-x="283" 
d="M74.5 251q-26.5 25 -26.5 63t26.5 63.5t66.5 25.5q41 0 67.5 -25.5t26.5 -63.5t-26.5 -63t-67.5 -25q-40 0 -66.5 25z" />
    <glyph glyph-name="radical" unicode="&#x221a;" horiz-adv-x="632" 
d="M513 747l110 -30l-237 -717h-112l-153 315l-80 -37l-36 84l205 93l121 -258z" />
    <glyph glyph-name="infinity" unicode="&#x221e;" horiz-adv-x="808" 
d="M712 438q47 -46 47 -119q0 -74 -47 -120t-121 -46q-55 0 -99.5 25.5t-88.5 69.5q-44 -44 -87.5 -69.5t-98.5 -25.5q-74 0 -121 46t-47 120q0 73 47 119t121 46q55 0 98.5 -25.5t87.5 -69.5q44 44 88.5 69.5t99.5 25.5q74 0 121 -46zM179.5 276q16.5 -17 42.5 -17
q29 0 56 15.5t57 44.5q-30 28 -57 43.5t-56 15.5q-26 0 -42.5 -16.5t-16.5 -42.5t16.5 -43zM627.5 276q16.5 17 16.5 43t-16.5 42.5t-42.5 16.5q-30 0 -57 -15.5t-57 -43.5q30 -29 57 -44.5t57 -15.5q26 0 42.5 17z" />
    <glyph glyph-name="integral" unicode="&#x222b;" horiz-adv-x="507" 
d="M64 -191.5q-37 11.5 -67 32.5l50 105q16 -10 29 -14t29 -4q30 0 46.5 20.5t16.5 56.5v567q0 90 55.5 143t145.5 53q41 0 77.5 -12.5t63.5 -35.5l-52 -100q-30 24 -69 24q-29 0 -46 -18.5t-17 -53.5v-573q0 -92 -50.5 -147t-136.5 -55q-38 0 -75 11.5z" />
    <glyph glyph-name="approxequal" unicode="&#x2248;" horiz-adv-x="538" 
d="M303 327.5q-20 6.5 -45 18.5q-20 9 -33.5 14t-26.5 5q-41 0 -64 -40l-82 48q23 47 60 73.5t81 26.5q22 0 41 -6.5t46 -18.5q22 -10 35 -14.5t26 -4.5q41 0 65 41l81 -49q-23 -47 -60 -73.5t-81 -26.5q-23 0 -43 6.5zM303 137.5q-20 6.5 -45 18.5q-20 9 -33.5 14t-26.5 5
q-41 0 -64 -41l-82 49q23 47 60 73.5t81 26.5q22 0 41 -6.5t46 -18.5q22 -10 35 -14.5t26 -4.5q40 0 65 40l81 -49q-23 -47 -60 -73t-81 -26q-23 0 -43 6.5z" />
    <glyph glyph-name="notequal" unicode="&#x2260;" horiz-adv-x="567" 
d="M509 352h-151l-46 -84h197v-129h-268l-54 -98l-79 44l30 54h-80v129h151l46 84h-197v129h268l54 98l78 -44l-30 -54h81v-129z" />
    <glyph glyph-name="lessequal" unicode="&#x2264;" horiz-adv-x="461" 
d="M386 293l-80 -100l-246 195v44l246 196l80 -100l-157 -118zM56 135h351v-127h-351v127z" />
    <glyph glyph-name="greaterequal" unicode="&#x2265;" horiz-adv-x="461" 
d="M155 193l-80 100l157 117l-157 118l80 100l246 -196v-44zM54 135h352v-127h-352v127z" />
    <glyph glyph-name="lozenge" unicode="&#x25ca;" horiz-adv-x="626" 
d="M382 700l212 -350l-212 -350h-139l-211 350l211 350h139zM313 152l119 198l-119 198l-120 -198z" />
    <glyph glyph-name="uniF8FF" unicode="&#xf8ff;" horiz-adv-x="1160" 
d="M50 450v42h33v18q0 27 15 43t44 16h38v-42h-29q-20 0 -20 -19v-16h49v-42h-47v-144h-52v144h-31zM1018 476q-15 15 -15 38t15 38t37 15q23 0 38 -15t15 -38q0 -22 -15 -37.5t-38 -15.5q-22 0 -37 15zM1085 485q12 12 12 29t-13 29t-29 12q-17 0 -29 -12t-12 -29t12 -29
t29 -12q18 0 30 12zM685.5 324.5q-18.5 18.5 -18.5 49.5v79h-33v11l75 79h8v-49h53v-41h-50v-73q0 -28 28 -28h22v-46h-35q-31 0 -49.5 18.5zM1058 541q9 0 15 -5t6 -13q0 -5 -3.5 -9.5t-8.5 -5.5l14 -21h-14l-12 19h-6v-19h-14v54h23zM1065 523q0 7 -7 7h-9v-14h9q7 0 7 7z
M222.5 329q-29.5 28 -29.5 71t29.5 72t73.5 29q43 0 72 -29t29 -72t-29 -71t-72 -28q-44 0 -73.5 28zM469 494l9 -22q25 27 62 27q32 0 51 -21.5t19 -57.5v-114h-51v107q0 42 -33 42q-19 0 -30 -14t-11 -37v-98h-51v188h35zM331.5 363q14.5 14 14.5 37t-14.5 38t-35.5 15
q-23 0 -37 -15t-14 -38t14 -37t37 -14q21 0 35.5 14zM50 145v42h33v18q0 27 15 43t44 16h38v-42h-29q-20 0 -20 -20v-15h49v-42h-47v-145h-52v145h-31zM827 262h51v-46h-51v46zM489 16l-4 -16h-40v257h53v-79q21 18 50 18q43 0 71 -29t28 -72t-28 -71t-71 -28q-31 0 -59 20z
M220.5 24q-27.5 28 -27.5 71t28 72t70 29q38 0 62 -24l7 17h37v-189h-40l-4 18q-25 -22 -62 -22q-43 0 -70.5 28zM942 25q-29 29 -29 70q0 43 29 72t72 29q36 0 63 -22t33 -57h-50q-13 30 -46 30q-22 0 -35.5 -14.5t-13.5 -37.5q0 -22 14.5 -36.5t34.5 -14.5q15 0 27 8
t19 23h50q-6 -35 -33 -57t-63 -22q-43 0 -72 29zM717 189l9 -22q20 24 55 24h15v-48h-22q-21 0 -30 -10.5t-9 -33.5v-99h-51v189h33zM827 189h51v-189h-51v189zM334 58.5q15 14.5 15 36.5q0 23 -15 37.5t-38 14.5q-22 0 -36.5 -14.5t-14.5 -37.5q0 -22 14.5 -36.5
t36.5 -14.5q23 0 38 14.5zM582 58.5q15 14.5 15 36.5q0 23 -15 37.5t-38 14.5q-22 0 -36.5 -14.5t-14.5 -37.5q0 -22 14.5 -36.5t36.5 -14.5q23 0 38 14.5z" />
    <glyph glyph-name="uni00A40301" horiz-adv-x="708" 
d="M643 700v-403q0 -95 -38.5 -165t-109.5 -108t-165 -38q-146 0 -227.5 81t-82.5 229h160q1 -79 40 -121.5t110 -42.5q70 0 109.5 43.5t39.5 123.5v259h-204v142h368zM453 907h176l-112 -144h-138z" />
    <glyph glyph-name="Q.ss02" horiz-adv-x="826" 
d="M214.5 28.5q-85.5 45.5 -132 128.5t-46.5 193t46.5 193t132 128.5t198.5 45.5t198.5 -45.5t132 -128.5t46.5 -193t-46.5 -193t-132 -128.5t-198.5 -45.5t-198.5 45.5zM524.5 156.5q48.5 27.5 75 77.5t26.5 116t-26.5 116t-75 77.5t-111.5 27.5t-111 -27.5t-74.5 -77.5
t-26.5 -116t26.5 -116t74.5 -77.5t111 -27.5t111.5 27.5zM399 -58h323v-132h-323v132z" />
    <glyph glyph-name="i.loclTRK" horiz-adv-x="275" 
d="M59 494h157v-494h-157v494zM77 576q-24 22 -24 56t24 56t61 22t60.5 -22t23.5 -56t-23.5 -56t-60.5 -22t-61 22z" />
    <glyph glyph-name="uni006A0301" horiz-adv-x="277" 
d="M-75 -205l35 113q28 -14 51 -14q25 0 37 17.5t12 54.5v528h157v-528q0 -97 -45.5 -150t-127.5 -53q-58 0 -119 32zM115 700h169l-88 -148h-132z" />
    <glyph glyph-name="germandbls.calt" horiz-adv-x="734" 
d="M662.5 369.5q47.5 -59.5 47.5 -147.5q0 -70 -30.5 -122t-87.5 -80t-133 -28q-77 0 -148 23l30 134q44 -14 91 -14q55 0 85 24.5t30 69.5q0 91 -116 91h-61l-28 71l108 167h-113q-52 0 -74.5 -23t-22.5 -75v-460h-164v478q0 222 220 222h352v-86l-113 -168
q80 -17 127.5 -76.5z" />
    <glyph glyph-name="a.ss01" horiz-adv-x="565" 
d="M447.5 458.5q64.5 -46.5 64.5 -148.5v-310h-136l-10 60q-57 -69 -157 -69q-80 0 -131 44t-51 121q0 78 56.5 123t146.5 45q76 0 125 -23q-1 44 -29.5 64t-81.5 20q-38 0 -81.5 -9t-77.5 -24l-21 109q90 44 194 44q125 0 189.5 -46.5zM322.5 134q29.5 22 33.5 57
q-18 11 -47 18.5t-53 7.5q-33 0 -53 -13.5t-20 -39.5q0 -25 20 -38.5t50 -13.5q40 0 69.5 22z" />
    <glyph glyph-name="aacute.ss01" horiz-adv-x="565" 
d="M447.5 458.5q64.5 -46.5 64.5 -148.5v-310h-136l-10 60q-57 -69 -157 -69q-80 0 -131 44t-51 121q0 78 56.5 123t146.5 45q76 0 125 -23q-1 44 -29.5 64t-81.5 20q-38 0 -81.5 -9t-77.5 -24l-21 109q90 44 194 44q125 0 189.5 -46.5zM322.5 134q29.5 22 33.5 57
q-18 11 -47 18.5t-53 7.5q-33 0 -53 -13.5t-20 -39.5q0 -25 20 -38.5t50 -13.5q40 0 69.5 22zM274 700h169l-105 -148h-131z" />
    <glyph glyph-name="abreve.ss01" horiz-adv-x="565" 
d="M447.5 458.5q64.5 -46.5 64.5 -148.5v-310h-136l-10 60q-57 -69 -157 -69q-80 0 -131 44t-51 121q0 78 56.5 123t146.5 45q76 0 125 -23q-1 44 -29.5 64t-81.5 20q-38 0 -81.5 -9t-77.5 -24l-21 109q90 44 194 44q125 0 189.5 -46.5zM322.5 134q29.5 22 33.5 57
q-18 11 -47 18.5t-53 7.5q-33 0 -53 -13.5t-20 -39.5q0 -25 20 -38.5t50 -13.5q40 0 69.5 22zM163 590.5q-44 39.5 -44 109.5h118q0 -22 13 -35t34 -13q22 0 35 13t13 35h117q0 -70 -44 -109.5t-121 -39.5t-121 39.5z" />
    <glyph glyph-name="acircumflex.ss01" horiz-adv-x="565" 
d="M447.5 458.5q64.5 -46.5 64.5 -148.5v-310h-136l-10 60q-57 -69 -157 -69q-80 0 -131 44t-51 121q0 78 56.5 123t146.5 45q76 0 125 -23q-1 44 -29.5 64t-81.5 20q-38 0 -81.5 -9t-77.5 -24l-21 109q90 44 194 44q125 0 189.5 -46.5zM322.5 134q29.5 22 33.5 57
q-18 11 -47 18.5t-53 7.5q-33 0 -53 -13.5t-20 -39.5q0 -25 20 -38.5t50 -13.5q40 0 69.5 22zM482 550h-141l-58 53l-56 -53h-141l149 150h97z" />
    <glyph glyph-name="adieresis.ss01" horiz-adv-x="565" 
d="M447.5 458.5q64.5 -46.5 64.5 -148.5v-310h-136l-10 60q-57 -69 -157 -69q-80 0 -131 44t-51 121q0 78 56.5 123t146.5 45q76 0 125 -23q-1 44 -29.5 64t-81.5 20q-38 0 -81.5 -9t-77.5 -24l-21 109q90 44 194 44q125 0 189.5 -46.5zM322.5 134q29.5 22 33.5 57
q-18 11 -47 18.5t-53 7.5q-33 0 -53 -13.5t-20 -39.5q0 -25 20 -38.5t50 -13.5q40 0 69.5 22zM115.5 574.5q-23.5 20.5 -23.5 57.5q0 36 24 56.5t56 20.5q33 0 56.5 -20.5t23.5 -56.5q0 -37 -23.5 -57.5t-56.5 -20.5t-56.5 20.5zM337.5 574.5q-23.5 20.5 -23.5 57.5
q0 36 24 56.5t56 20.5q33 0 57 -20.5t24 -56.5q0 -37 -24 -57.5t-57 -20.5t-56.5 20.5z" />
    <glyph glyph-name="agrave.ss01" horiz-adv-x="565" 
d="M447.5 458.5q64.5 -46.5 64.5 -148.5v-310h-136l-10 60q-57 -69 -157 -69q-80 0 -131 44t-51 121q0 78 56.5 123t146.5 45q76 0 125 -23q-1 44 -29.5 64t-81.5 20q-38 0 -81.5 -9t-77.5 -24l-21 109q90 44 194 44q125 0 189.5 -46.5zM322.5 134q29.5 22 33.5 57
q-18 11 -47 18.5t-53 7.5q-33 0 -53 -13.5t-20 -39.5q0 -25 20 -38.5t50 -13.5q40 0 69.5 22zM229 552l-105 148h169l67 -148h-131z" />
    <glyph glyph-name="amacron.ss01" horiz-adv-x="565" 
d="M447.5 458.5q64.5 -46.5 64.5 -148.5v-310h-136l-10 60q-57 -69 -157 -69q-80 0 -131 44t-51 121q0 78 56.5 123t146.5 45q76 0 125 -23q-1 44 -29.5 64t-81.5 20q-38 0 -81.5 -9t-77.5 -24l-21 109q90 44 194 44q125 0 189.5 -46.5zM322.5 134q29.5 22 33.5 57
q-18 11 -47 18.5t-53 7.5q-33 0 -53 -13.5t-20 -39.5q0 -25 20 -38.5t50 -13.5q40 0 69.5 22zM134 679h300v-113h-300v113z" />
    <glyph glyph-name="aogonek.ss01" horiz-adv-x="565" 
d="M558 -141q-53 -47 -125 -47q-50 0 -78.5 24t-28.5 66q0 56 50 100l-10 58q-57 -69 -157 -69q-80 0 -131 44t-51 121q0 78 56.5 123t146.5 45q76 0 125 -23q-1 44 -29.5 64t-81.5 20q-38 0 -81.5 -9t-77.5 -24l-21 109q90 44 194 44q125 0 189.5 -46.5t64.5 -148.5v-310
q-69 -31 -69 -62q0 -11 8 -18.5t21 -7.5q10 0 21.5 4.5t20.5 11.5zM322.5 134q29.5 22 33.5 57q-18 11 -47 18.5t-53 7.5q-33 0 -53 -13.5t-20 -39.5q0 -25 20 -38.5t50 -13.5q40 0 69.5 22z" />
    <glyph glyph-name="aring.ss01" horiz-adv-x="565" 
d="M447.5 458.5q64.5 -46.5 64.5 -148.5v-310h-136l-10 60q-57 -69 -157 -69q-80 0 -131 44t-51 121q0 78 56.5 123t146.5 45q76 0 125 -23q-1 44 -29.5 64t-81.5 20q-38 0 -81.5 -9t-77.5 -24l-21 109q90 44 194 44q125 0 189.5 -46.5zM322.5 134q29.5 22 33.5 57
q-18 11 -47 18.5t-53 7.5q-33 0 -53 -13.5t-20 -39.5q0 -25 20 -38.5t50 -13.5q40 0 69.5 22zM183 573.5q-39 34.5 -39 88.5q0 55 39 89.5t100 34.5q62 0 101 -34.5t39 -89.5q0 -54 -39 -88.5t-101 -34.5q-61 0 -100 34.5zM313.5 633q11.5 11 11.5 29t-11.5 29.5t-30.5 11.5
t-30.5 -11.5t-11.5 -29.5q0 -17 11.5 -28.5t30.5 -11.5t30.5 11z" />
    <glyph glyph-name="atilde.ss01" horiz-adv-x="565" 
d="M447.5 458.5q64.5 -46.5 64.5 -148.5v-310h-136l-10 60q-57 -69 -157 -69q-80 0 -131 44t-51 121q0 78 56.5 123t146.5 45q76 0 125 -23q-1 44 -29.5 64t-81.5 20q-38 0 -81.5 -9t-77.5 -24l-21 109q90 44 194 44q125 0 189.5 -46.5zM322.5 134q29.5 22 33.5 57
q-18 11 -47 18.5t-53 7.5q-33 0 -53 -13.5t-20 -39.5q0 -25 20 -38.5t50 -13.5q40 0 69.5 22zM278 577q-31 17 -49 17q-30 0 -44 -33l-81 55q15 43 45.5 67t68.5 24q34 0 68 -20q24 -17 50 -17q30 0 44 34l80 -52q-14 -48 -42.5 -72t-66.5 -24q-35 0 -73 21z" />
    <glyph glyph-name="ae.ss01" horiz-adv-x="885" 
d="M796 439.5q61 -64.5 61 -172.5q0 -32 -6 -67h-337q8 -38 41 -60.5t81 -22.5q30 0 60 10.5t54 29.5l82 -88q-39 -37 -91.5 -57.5t-107.5 -20.5q-132 0 -200 83q-36 -39 -91 -61t-119 -22q-91 0 -143.5 45t-52.5 121q0 77 55 122t148 45q35 0 69.5 -7t59.5 -20v1
q0 88 -123 88q-71 0 -151 -34l-21 110q48 22 92 32.5t93 10.5q71 0 121 -23t71 -65q26 40 76.5 63.5t111.5 23.5q106 0 167 -64.5zM545.5 357.5q-27.5 -24.5 -32.5 -68.5h197q1 43 -24 68t-68 25q-45 0 -72.5 -24.5zM325.5 134.5q29.5 22.5 34.5 56.5q-22 12 -49.5 19
t-51.5 7q-36 0 -56 -14t-20 -39t19.5 -38.5t52.5 -13.5q41 0 70.5 22.5z" />
    <glyph glyph-name="aeacute.ss01" horiz-adv-x="885" 
d="M796 439.5q61 -64.5 61 -172.5q0 -32 -6 -67h-337q8 -38 41 -60.5t81 -22.5q30 0 60 10.5t54 29.5l82 -88q-39 -37 -91.5 -57.5t-107.5 -20.5q-132 0 -200 83q-36 -39 -91 -61t-119 -22q-91 0 -143.5 45t-52.5 121q0 77 55 122t148 45q35 0 69.5 -7t59.5 -20v1
q0 88 -123 88q-71 0 -151 -34l-21 110q48 22 92 32.5t93 10.5q71 0 121 -23t71 -65q26 40 76.5 63.5t111.5 23.5q106 0 167 -64.5zM545.5 357.5q-27.5 -24.5 -32.5 -68.5h197q1 43 -24 68t-68 25q-45 0 -72.5 -24.5zM325.5 134.5q29.5 22.5 34.5 56.5q-22 12 -49.5 19
t-51.5 7q-36 0 -56 -14t-20 -39t19.5 -38.5t52.5 -13.5q41 0 70.5 22.5zM436 700h169l-105 -148h-131z" />
    <glyph glyph-name="g.ss01" horiz-adv-x="635" 
d="M576 494v-493q0 -119 -74 -182.5t-203 -63.5q-132 0 -236 66l57 112q83 -47 163 -47q70 0 104.5 29.5t34.5 92.5v49q-28 -30 -68 -45.5t-87 -15.5q-69 0 -122.5 32.5t-83.5 90t-30 131.5t30 132t83.5 90t122.5 32q50 0 92 -17.5t72 -50.5l10 58h135zM389.5 159
q32.5 34 32.5 89t-32.5 89.5t-85.5 34.5q-52 0 -84.5 -34.5t-32.5 -89.5t32.5 -89t84.5 -34q53 0 85.5 34z" />
    <glyph glyph-name="gbreve.ss01" horiz-adv-x="635" 
d="M576 494v-493q0 -119 -74 -182.5t-203 -63.5q-132 0 -236 66l57 112q83 -47 163 -47q70 0 104.5 29.5t34.5 92.5v49q-28 -30 -68 -45.5t-87 -15.5q-69 0 -122.5 32.5t-83.5 90t-30 131.5t30 132t83.5 90t122.5 32q50 0 92 -17.5t72 -50.5l10 58h135zM389.5 159
q32.5 34 32.5 89t-32.5 89.5t-85.5 34.5q-52 0 -84.5 -34.5t-32.5 -89.5t32.5 -89t84.5 -34q53 0 85.5 34zM179 590.5q-44 39.5 -44 109.5h118q0 -22 13 -35t34 -13q22 0 35 13t13 35h117q0 -70 -44 -109.5t-121 -39.5t-121 39.5z" />
    <glyph glyph-name="gcircumflex.ss01" horiz-adv-x="635" 
d="M576 494v-493q0 -119 -74 -182.5t-203 -63.5q-132 0 -236 66l57 112q83 -47 163 -47q70 0 104.5 29.5t34.5 92.5v49q-28 -30 -68 -45.5t-87 -15.5q-69 0 -122.5 32.5t-83.5 90t-30 131.5t30 132t83.5 90t122.5 32q50 0 92 -17.5t72 -50.5l10 58h135zM389.5 159
q32.5 34 32.5 89t-32.5 89.5t-85.5 34.5q-52 0 -84.5 -34.5t-32.5 -89.5t32.5 -89t84.5 -34q53 0 85.5 34zM498 550h-141l-58 53l-56 -53h-141l149 150h97z" />
    <glyph glyph-name="uni0123.ss01" horiz-adv-x="635" 
d="M227 567q-22 22 -22 56q0 28 12 60t46 106h74l-24 -103q22 -7 35 -25t13 -42q0 -32 -22 -53t-56 -21t-56 22zM576 494v-493q0 -119 -74 -182.5t-203 -63.5q-132 0 -236 66l57 112q83 -47 163 -47q70 0 104.5 29.5t34.5 92.5v49q-28 -30 -68 -45.5t-87 -15.5
q-69 0 -122.5 32.5t-83.5 90t-30 131.5t30 132t83.5 90t122.5 32q50 0 92 -17.5t72 -50.5l10 58h135zM389.5 159q32.5 34 32.5 89t-32.5 89.5t-85.5 34.5q-52 0 -84.5 -34.5t-32.5 -89.5t32.5 -89t84.5 -34q53 0 85.5 34z" />
    <glyph glyph-name="gdotaccent.ss01" horiz-adv-x="635" 
d="M576 494v-493q0 -119 -74 -182.5t-203 -63.5q-132 0 -236 66l57 112q83 -47 163 -47q70 0 104.5 29.5t34.5 92.5v49q-28 -30 -68 -45.5t-87 -15.5q-69 0 -122.5 32.5t-83.5 90t-30 131.5t30 132t83.5 90t122.5 32q50 0 92 -17.5t72 -50.5l10 58h135zM389.5 159
q32.5 34 32.5 89t-32.5 89.5t-85.5 34.5q-52 0 -84.5 -34.5t-32.5 -89.5t32.5 -89t84.5 -34q53 0 85.5 34zM239 576q-24 22 -24 56t24 56t61 22t60.5 -22t23.5 -56t-23.5 -56t-60.5 -22t-61 22z" />
    <glyph glyph-name="y.ss01" 
d="M555 494v-499q0 -117 -68 -178.5t-195 -61.5q-68 0 -125 15.5t-107 50.5l59 112q84 -47 161 -47q61 0 93 28t32 83v65q-55 -65 -153 -65q-97 0 -148 61t-51 173v263h157v-264q0 -47 24 -75t65 -28q44 0 71.5 31.5t27.5 82.5v253h157z" />
    <glyph glyph-name="yacute.ss01" 
d="M555 494v-499q0 -117 -68 -178.5t-195 -61.5q-68 0 -125 15.5t-107 50.5l59 112q84 -47 161 -47q61 0 93 28t32 83v65q-55 -65 -153 -65q-97 0 -148 61t-51 173v263h157v-264q0 -47 24 -75t65 -28q44 0 71.5 31.5t27.5 82.5v253h157zM295 700h169l-105 -148h-131z" />
    <glyph glyph-name="ycircumflex.ss01" 
d="M555 494v-499q0 -117 -68 -178.5t-195 -61.5q-68 0 -125 15.5t-107 50.5l59 112q84 -47 161 -47q61 0 93 28t32 83v65q-55 -65 -153 -65q-97 0 -148 61t-51 173v263h157v-264q0 -47 24 -75t65 -28q44 0 71.5 31.5t27.5 82.5v253h157zM503 550h-141l-58 53l-56 -53h-141
l149 150h97z" />
    <glyph glyph-name="ydieresis.ss01" 
d="M555 494v-499q0 -117 -68 -178.5t-195 -61.5q-68 0 -125 15.5t-107 50.5l59 112q84 -47 161 -47q61 0 93 28t32 83v65q-55 -65 -153 -65q-97 0 -148 61t-51 173v263h157v-264q0 -47 24 -75t65 -28q44 0 71.5 31.5t27.5 82.5v253h157zM136.5 574.5q-23.5 20.5 -23.5 57.5
q0 36 24 56.5t56 20.5q33 0 56.5 -20.5t23.5 -56.5q0 -37 -23.5 -57.5t-56.5 -20.5t-56.5 20.5zM358.5 574.5q-23.5 20.5 -23.5 57.5q0 36 24 56.5t56 20.5q33 0 57 -20.5t24 -56.5q0 -37 -24 -57.5t-57 -20.5t-56.5 20.5z" />
    <glyph glyph-name="ygrave.ss01" 
d="M555 494v-499q0 -117 -68 -178.5t-195 -61.5q-68 0 -125 15.5t-107 50.5l59 112q84 -47 161 -47q61 0 93 28t32 83v65q-55 -65 -153 -65q-97 0 -148 61t-51 173v263h157v-264q0 -47 24 -75t65 -28q44 0 71.5 31.5t27.5 82.5v253h157zM250 552l-105 148h169l67 -148h-131z
" />
    <glyph glyph-name="f.ss02" horiz-adv-x="415" 
d="M422 579h-157v-85h131v-126h-131v-368h-157v368h-87v126h87v218h314v-133z" />
    <glyph glyph-name="g.ss02" horiz-adv-x="636" 
d="M577 494v-708h-458v133h303v155q-29 -31 -69.5 -47.5t-88.5 -16.5q-68 0 -121 32t-82.5 88t-29.5 127t29.5 127t82.5 88t121 32q54 0 99 -20t72 -55l2 65h140zM389 172q33 33 33 83q0 51 -33 84t-85 33q-51 0 -84 -33t-33 -84q0 -50 33 -83t84 -33q52 0 85 33z" />
    <glyph glyph-name="gbreve.ss02" horiz-adv-x="636" 
d="M577 494v-708h-458v133h303v155q-29 -31 -69.5 -47.5t-88.5 -16.5q-68 0 -121 32t-82.5 88t-29.5 127t29.5 127t82.5 88t121 32q54 0 99 -20t72 -55l2 65h140zM389 172q33 33 33 83q0 51 -33 84t-85 33q-51 0 -84 -33t-33 -84q0 -50 33 -83t84 -33q52 0 85 33zM179 590.5
q-44 39.5 -44 109.5h118q0 -22 13 -35t34 -13q22 0 35 13t13 35h117q0 -70 -44 -109.5t-121 -39.5t-121 39.5z" />
    <glyph glyph-name="gcircumflex.ss02" horiz-adv-x="636" 
d="M577 494v-708h-458v133h303v155q-29 -31 -69.5 -47.5t-88.5 -16.5q-68 0 -121 32t-82.5 88t-29.5 127t29.5 127t82.5 88t121 32q54 0 99 -20t72 -55l2 65h140zM389 172q33 33 33 83q0 51 -33 84t-85 33q-51 0 -84 -33t-33 -84q0 -50 33 -83t84 -33q52 0 85 33zM498 550
h-141l-58 53l-56 -53h-141l149 150h97z" />
    <glyph glyph-name="uni0123.ss02" horiz-adv-x="636" 
d="M221.5 566q-21.5 21 -21.5 56q0 29 12.5 63t45.5 104h73l-23 -103q22 -8 35 -25.5t13 -41.5q0 -32 -22 -53t-56 -21q-35 0 -56.5 21zM577 494v-708h-458v133h303v155q-29 -31 -69.5 -47.5t-88.5 -16.5q-68 0 -121 32t-82.5 88t-29.5 127t29.5 127t82.5 88t121 32
q54 0 99 -20t72 -55l2 65h140zM389 172q33 33 33 83q0 51 -33 84t-85 33q-51 0 -84 -33t-33 -84q0 -50 33 -83t84 -33q52 0 85 33z" />
    <glyph glyph-name="gdotaccent.ss02" horiz-adv-x="636" 
d="M577 494v-708h-458v133h303v155q-29 -31 -69.5 -47.5t-88.5 -16.5q-68 0 -121 32t-82.5 88t-29.5 127t29.5 127t82.5 88t121 32q54 0 99 -20t72 -55l2 65h140zM389 172q33 33 33 83q0 51 -33 84t-85 33q-51 0 -84 -33t-33 -84q0 -50 33 -83t84 -33q52 0 85 33zM239 576
q-24 22 -24 56t24 56t61 22t60.5 -22t23.5 -56t-23.5 -56t-60.5 -22t-61 22z" />
    <glyph glyph-name="ij.ss02" horiz-adv-x="565" 
d="M71.5 567q-25.5 24 -25.5 61q0 38 26 62t66 24t66 -24t26 -62q0 -37 -25.5 -61t-66.5 -24t-66.5 24zM59 494h157v-494h-157v494zM361 567q-26 24 -26 61t26 61.5t66 24.5q41 0 67 -24.5t26 -61.5t-26 -61t-67 -24q-40 0 -66 24zM231 -81h117v575h157v-708h-274v133z" />
    <glyph glyph-name="j.ss02" horiz-adv-x="290" 
d="M86 567q-26 24 -26 61t26 61.5t66 24.5q41 0 67 -24.5t26 -61.5t-26 -61t-67 -24q-40 0 -66 24zM-44 -81h117v575h157v-708h-274v133z" />
    <glyph glyph-name="uni0237.ss02" horiz-adv-x="290" 
d="M-44 -81h117v575h157v-708h-274v133z" />
    <glyph glyph-name="uni006A0301.ss02" horiz-adv-x="290" 
d="M-44 -81h117v575h157v-708h-274v133zM127 700h169l-88 -148h-132z" />
    <glyph glyph-name="jcircumflex.ss02" horiz-adv-x="290" 
d="M-44 -81h117v575h157v-708h-274v133zM337 550h-139l-47 53l-46 -53h-139l135 150h102z" />
    <glyph glyph-name="l.ss02" horiz-adv-x="299" 
d="M216 133h80v-133h-237v700h157v-567z" />
    <glyph glyph-name="lacute.ss02" horiz-adv-x="299" 
d="M216 133h80v-133h-237v700h157v-567zM126 906h169l-105 -148h-131z" />
    <glyph glyph-name="lcaron.ss02" horiz-adv-x="381" 
d="M216 700v-567h80v-133h-237v700h157zM290 700h132l-73 -210h-103z" />
    <glyph glyph-name="uni013C.ss02" horiz-adv-x="299" 
d="M216 133h80v-133h-237v700h157v-567zM233 -71.5q21 -19.5 21 -49.5q0 -23 -10 -52.5t-39 -93.5h-76l19 92q-22 4 -34 18.5t-12 37.5q0 29 21.5 48t54.5 19q34 0 55 -19.5z" />
    <glyph glyph-name="ldot.ss02" horiz-adv-x="439" 
d="M216 133h80v-133h-237v700h157v-567zM294.5 271q-25.5 24 -25.5 61t25.5 61t65.5 24q39 0 64.5 -24t25.5 -61t-25.5 -61t-64.5 -24q-40 0 -65.5 24z" />
    <glyph glyph-name="lslash.ss02" horiz-adv-x="328" 
d="M239 133h80v-133h-237v261l-65 -32v116l65 32v323h157v-247l65 32v-116l-65 -32v-204z" />
    <glyph glyph-name="r.ss02" horiz-adv-x="410" 
d="M59 494h342v-135h-186v-359h-156v494z" />
    <glyph glyph-name="racute.ss02" horiz-adv-x="410" 
d="M59 494h342v-135h-186v-359h-156v494zM218 700h169l-105 -148h-131z" />
    <glyph glyph-name="rcaron.ss02" horiz-adv-x="410" 
d="M59 494h342v-135h-186v-359h-156v494zM285 700h141l-150 -150h-97l-149 150h141l56 -53z" />
    <glyph glyph-name="uni0157.ss02" horiz-adv-x="410" 
d="M59 494h342v-135h-186v-359h-156v494zM195 -71.5q21 -19.5 21 -49.5q0 -23 -10 -52.5t-39 -93.5h-76l19 92q-22 4 -34 18.5t-12 37.5q0 29 21.5 48t54.5 19q34 0 55 -19.5z" />
    <glyph glyph-name="t.ss02" horiz-adv-x="379" 
d="M368 494v-125h-105v-369h-156v369h-84v125h84v136h156v-136h105z" />
    <glyph glyph-name="tbar.ss02" horiz-adv-x="379" 
d="M368 369h-105v-63h87v-96h-87v-210h-156v210h-68v96h68v63h-84v125h84v136h156v-136h105v-125z" />
    <glyph glyph-name="tcaron.ss02" horiz-adv-x="509" 
d="M432 647h139l-76 -217h-106zM263 630v-136h105v-125h-105v-369h-156v369h-84v125h84v136h156z" />
    <glyph glyph-name="uni0163.ss02" horiz-adv-x="379" 
d="M263 494h105v-125h-105v-369h-156v369h-84v125h84v136h156v-136zM265.5 -79q26.5 -29 26.5 -69q0 -46 -31 -79t-87 -33h-91l8 82h79q15 0 24.5 9t9.5 21q0 11 -7 17.5t-20 6.5h-65l8 74h70q49 0 75.5 -29z" />
    <glyph glyph-name="uni021B.ss02" horiz-adv-x="379" 
d="M368 494v-125h-105v-369h-156v369h-84v125h84v136h156v-136h105zM240 -71.5q21 -19.5 21 -49.5q0 -23 -10 -52.5t-39 -93.5h-76l19 92q-22 4 -34 18.5t-12 37.5q0 29 21.5 48t54.5 19q34 0 55 -19.5z" />
    <glyph glyph-name="u.ss02" horiz-adv-x="608" 
d="M119 49.5q-66 60.5 -66 169.5v275h156v-274q0 -47 25 -72.5t69 -25.5t69 25.5t25 72.5v274h157v-275q0 -109 -65.5 -169.5t-184.5 -60.5t-185 60.5z" />
    <glyph glyph-name="uacute.ss02" horiz-adv-x="608" 
d="M119 49.5q-66 60.5 -66 169.5v275h156v-274q0 -47 25 -72.5t69 -25.5t69 25.5t25 72.5v274h157v-275q0 -109 -65.5 -169.5t-184.5 -60.5t-185 60.5zM294 700h169l-105 -148h-131z" />
    <glyph glyph-name="ubreve.ss02" horiz-adv-x="608" 
d="M119 49.5q-66 60.5 -66 169.5v275h156v-274q0 -47 25 -72.5t69 -25.5t69 25.5t25 72.5v274h157v-275q0 -109 -65.5 -169.5t-184.5 -60.5t-185 60.5zM182 590.5q-44 39.5 -44 109.5h118q0 -22 13 -35t34 -13q22 0 35 13t13 35h117q0 -70 -44 -109.5t-121 -39.5t-121 39.5z
" />
    <glyph glyph-name="ucircumflex.ss02" horiz-adv-x="608" 
d="M119 49.5q-66 60.5 -66 169.5v275h156v-274q0 -47 25 -72.5t69 -25.5t69 25.5t25 72.5v274h157v-275q0 -109 -65.5 -169.5t-184.5 -60.5t-185 60.5zM502 550h-141l-58 53l-56 -53h-141l149 150h97z" />
    <glyph glyph-name="udieresis.ss02" horiz-adv-x="608" 
d="M119 49.5q-66 60.5 -66 169.5v275h156v-274q0 -47 25 -72.5t69 -25.5t69 25.5t25 72.5v274h157v-275q0 -109 -65.5 -169.5t-184.5 -60.5t-185 60.5zM135.5 574.5q-23.5 20.5 -23.5 57.5q0 36 24 56.5t56 20.5q33 0 56.5 -20.5t23.5 -56.5q0 -37 -23.5 -57.5t-56.5 -20.5
t-56.5 20.5zM357.5 574.5q-23.5 20.5 -23.5 57.5q0 36 24 56.5t56 20.5q33 0 57 -20.5t24 -56.5q0 -37 -24 -57.5t-57 -20.5t-56.5 20.5z" />
    <glyph glyph-name="ugrave.ss02" horiz-adv-x="608" 
d="M119 49.5q-66 60.5 -66 169.5v275h156v-274q0 -47 25 -72.5t69 -25.5t69 25.5t25 72.5v274h157v-275q0 -109 -65.5 -169.5t-184.5 -60.5t-185 60.5zM249 552l-105 148h169l67 -148h-131z" />
    <glyph glyph-name="uhungarumlaut.ss02" horiz-adv-x="608" 
d="M119 49.5q-66 60.5 -66 169.5v275h156v-274q0 -47 25 -72.5t69 -25.5t69 25.5t25 72.5v274h157v-275q0 -109 -65.5 -169.5t-184.5 -60.5t-185 60.5zM200 700h155l-94 -148h-129zM409 700h156l-108 -148h-131z" />
    <glyph glyph-name="umacron.ss02" horiz-adv-x="608" 
d="M119 49.5q-66 60.5 -66 169.5v275h156v-274q0 -47 25 -72.5t69 -25.5t69 25.5t25 72.5v274h157v-275q0 -109 -65.5 -169.5t-184.5 -60.5t-185 60.5zM154 679h300v-113h-300v113z" />
    <glyph glyph-name="uogonek.ss02" horiz-adv-x="608" 
d="M554 494v-275q0 -87 -41.5 -143.5t-119.5 -76.5q-68 -29 -68 -61q0 -11 8 -18.5t21 -7.5q10 0 21.5 4.5t20.5 11.5l44 -69q-53 -47 -125 -47q-50 0 -78.5 24t-28.5 66q0 49 40 91q-93 14 -144 72t-51 154v275h156v-274q0 -47 25 -72.5t69 -25.5t69 25.5t25 72.5v274h157z
" />
    <glyph glyph-name="uring.ss02" horiz-adv-x="608" 
d="M119 49.5q-66 60.5 -66 169.5v275h156v-274q0 -47 25 -72.5t69 -25.5t69 25.5t25 72.5v274h157v-275q0 -109 -65.5 -169.5t-184.5 -60.5t-185 60.5zM203 573.5q-39 34.5 -39 88.5q0 55 39 89.5t100 34.5q62 0 101 -34.5t39 -89.5q0 -54 -39 -88.5t-101 -34.5
q-61 0 -100 34.5zM333.5 633q11.5 11 11.5 29t-11.5 29.5t-30.5 11.5t-30.5 -11.5t-11.5 -29.5q0 -17 11.5 -28.5t30.5 -11.5t30.5 11z" />
    <glyph glyph-name="utilde.ss02" horiz-adv-x="608" 
d="M119 49.5q-66 60.5 -66 169.5v275h156v-274q0 -47 25 -72.5t69 -25.5t69 25.5t25 72.5v274h157v-275q0 -109 -65.5 -169.5t-184.5 -60.5t-185 60.5zM298 577q-31 17 -49 17q-30 0 -44 -33l-81 55q15 43 45.5 67t68.5 24q34 0 68 -20q24 -17 50 -17q30 0 44 34l80 -52
q-14 -48 -42.5 -72t-66.5 -24q-35 0 -73 21z" />
    <glyph glyph-name="y.ss02" horiz-adv-x="611" 
d="M552 494v-708h-434v136h280v152q-55 -63 -151 -63q-90 0 -142 61t-52 166v256h156v-249q0 -47 24 -74.5t66 -27.5q43 0 70 31.5t27 81.5v238h156z" />
    <glyph glyph-name="yacute.ss02" horiz-adv-x="611" 
d="M552 494v-708h-434v136h280v152q-55 -63 -151 -63q-90 0 -142 61t-52 166v256h156v-249q0 -47 24 -74.5t66 -27.5q43 0 70 31.5t27 81.5v238h156zM297 700h169l-105 -148h-131z" />
    <glyph glyph-name="ycircumflex.ss02" horiz-adv-x="611" 
d="M552 494v-708h-434v136h280v152q-55 -63 -151 -63q-90 0 -142 61t-52 166v256h156v-249q0 -47 24 -74.5t66 -27.5q43 0 70 31.5t27 81.5v238h156zM505 550h-141l-58 53l-56 -53h-141l149 150h97z" />
    <glyph glyph-name="ydieresis.ss02" horiz-adv-x="611" 
d="M552 494v-708h-434v136h280v152q-55 -63 -151 -63q-90 0 -142 61t-52 166v256h156v-249q0 -47 24 -74.5t66 -27.5q43 0 70 31.5t27 81.5v238h156zM138.5 574.5q-23.5 20.5 -23.5 57.5q0 36 24 56.5t56 20.5q33 0 56.5 -20.5t23.5 -56.5q0 -37 -23.5 -57.5t-56.5 -20.5
t-56.5 20.5zM360.5 574.5q-23.5 20.5 -23.5 57.5q0 36 24 56.5t56 20.5q33 0 57 -20.5t24 -56.5q0 -37 -24 -57.5t-57 -20.5t-56.5 20.5z" />
    <glyph glyph-name="ygrave.ss02" horiz-adv-x="611" 
d="M552 494v-708h-434v136h280v152q-55 -63 -151 -63q-90 0 -142 61t-52 166v256h156v-249q0 -47 24 -74.5t66 -27.5q43 0 70 31.5t27 81.5v238h156zM252 552l-105 148h169l67 -148h-131z" />
    <glyph glyph-name="a.ss04" horiz-adv-x="565" 
d="M447.5 458.5q64.5 -46.5 64.5 -148.5v-310h-136l-10 60q-57 -69 -157 -69q-80 0 -131 44t-51 121q0 78 56.5 123t146.5 45q76 0 125 -23q-1 44 -29.5 64t-81.5 20q-38 0 -81.5 -9t-77.5 -24l-21 109q90 44 194 44q125 0 189.5 -46.5zM322.5 134q29.5 22 33.5 57
q-18 11 -47 18.5t-53 7.5q-33 0 -53 -13.5t-20 -39.5q0 -25 20 -38.5t50 -13.5q40 0 69.5 22z" />
    <glyph glyph-name="aacute.ss04" horiz-adv-x="565" 
d="M447.5 458.5q64.5 -46.5 64.5 -148.5v-310h-136l-10 60q-57 -69 -157 -69q-80 0 -131 44t-51 121q0 78 56.5 123t146.5 45q76 0 125 -23q-1 44 -29.5 64t-81.5 20q-38 0 -81.5 -9t-77.5 -24l-21 109q90 44 194 44q125 0 189.5 -46.5zM322.5 134q29.5 22 33.5 57
q-18 11 -47 18.5t-53 7.5q-33 0 -53 -13.5t-20 -39.5q0 -25 20 -38.5t50 -13.5q40 0 69.5 22zM274 700h169l-105 -148h-131z" />
    <glyph glyph-name="abreve.ss04" horiz-adv-x="565" 
d="M447.5 458.5q64.5 -46.5 64.5 -148.5v-310h-136l-10 60q-57 -69 -157 -69q-80 0 -131 44t-51 121q0 78 56.5 123t146.5 45q76 0 125 -23q-1 44 -29.5 64t-81.5 20q-38 0 -81.5 -9t-77.5 -24l-21 109q90 44 194 44q125 0 189.5 -46.5zM322.5 134q29.5 22 33.5 57
q-18 11 -47 18.5t-53 7.5q-33 0 -53 -13.5t-20 -39.5q0 -25 20 -38.5t50 -13.5q40 0 69.5 22zM163 590.5q-44 39.5 -44 109.5h118q0 -22 13 -35t34 -13q22 0 35 13t13 35h117q0 -70 -44 -109.5t-121 -39.5t-121 39.5z" />
    <glyph glyph-name="acircumflex.ss04" horiz-adv-x="565" 
d="M447.5 458.5q64.5 -46.5 64.5 -148.5v-310h-136l-10 60q-57 -69 -157 -69q-80 0 -131 44t-51 121q0 78 56.5 123t146.5 45q76 0 125 -23q-1 44 -29.5 64t-81.5 20q-38 0 -81.5 -9t-77.5 -24l-21 109q90 44 194 44q125 0 189.5 -46.5zM322.5 134q29.5 22 33.5 57
q-18 11 -47 18.5t-53 7.5q-33 0 -53 -13.5t-20 -39.5q0 -25 20 -38.5t50 -13.5q40 0 69.5 22zM482 550h-141l-58 53l-56 -53h-141l149 150h97z" />
    <glyph glyph-name="adieresis.ss04" horiz-adv-x="565" 
d="M447.5 458.5q64.5 -46.5 64.5 -148.5v-310h-136l-10 60q-57 -69 -157 -69q-80 0 -131 44t-51 121q0 78 56.5 123t146.5 45q76 0 125 -23q-1 44 -29.5 64t-81.5 20q-38 0 -81.5 -9t-77.5 -24l-21 109q90 44 194 44q125 0 189.5 -46.5zM322.5 134q29.5 22 33.5 57
q-18 11 -47 18.5t-53 7.5q-33 0 -53 -13.5t-20 -39.5q0 -25 20 -38.5t50 -13.5q40 0 69.5 22zM115.5 574.5q-23.5 20.5 -23.5 57.5q0 36 24 56.5t56 20.5q33 0 56.5 -20.5t23.5 -56.5q0 -37 -23.5 -57.5t-56.5 -20.5t-56.5 20.5zM337.5 574.5q-23.5 20.5 -23.5 57.5
q0 36 24 56.5t56 20.5q33 0 57 -20.5t24 -56.5q0 -37 -24 -57.5t-57 -20.5t-56.5 20.5z" />
    <glyph glyph-name="agrave.ss04" horiz-adv-x="565" 
d="M447.5 458.5q64.5 -46.5 64.5 -148.5v-310h-136l-10 60q-57 -69 -157 -69q-80 0 -131 44t-51 121q0 78 56.5 123t146.5 45q76 0 125 -23q-1 44 -29.5 64t-81.5 20q-38 0 -81.5 -9t-77.5 -24l-21 109q90 44 194 44q125 0 189.5 -46.5zM322.5 134q29.5 22 33.5 57
q-18 11 -47 18.5t-53 7.5q-33 0 -53 -13.5t-20 -39.5q0 -25 20 -38.5t50 -13.5q40 0 69.5 22zM229 552l-105 148h169l67 -148h-131z" />
    <glyph glyph-name="amacron.ss04" horiz-adv-x="565" 
d="M447.5 458.5q64.5 -46.5 64.5 -148.5v-310h-136l-10 60q-57 -69 -157 -69q-80 0 -131 44t-51 121q0 78 56.5 123t146.5 45q76 0 125 -23q-1 44 -29.5 64t-81.5 20q-38 0 -81.5 -9t-77.5 -24l-21 109q90 44 194 44q125 0 189.5 -46.5zM322.5 134q29.5 22 33.5 57
q-18 11 -47 18.5t-53 7.5q-33 0 -53 -13.5t-20 -39.5q0 -25 20 -38.5t50 -13.5q40 0 69.5 22zM134 679h300v-113h-300v113z" />
    <glyph glyph-name="aogonek.ss04" horiz-adv-x="565" 
d="M558 -141q-53 -47 -125 -47q-50 0 -78.5 24t-28.5 66q0 56 50 100l-10 58q-57 -69 -157 -69q-80 0 -131 44t-51 121q0 78 56.5 123t146.5 45q76 0 125 -23q-1 44 -29.5 64t-81.5 20q-38 0 -81.5 -9t-77.5 -24l-21 109q90 44 194 44q125 0 189.5 -46.5t64.5 -148.5v-310
q-69 -31 -69 -62q0 -11 8 -18.5t21 -7.5q10 0 21.5 4.5t20.5 11.5zM322.5 134q29.5 22 33.5 57q-18 11 -47 18.5t-53 7.5q-33 0 -53 -13.5t-20 -39.5q0 -25 20 -38.5t50 -13.5q40 0 69.5 22z" />
    <glyph glyph-name="aring.ss04" horiz-adv-x="565" 
d="M447.5 458.5q64.5 -46.5 64.5 -148.5v-310h-136l-10 60q-57 -69 -157 -69q-80 0 -131 44t-51 121q0 78 56.5 123t146.5 45q76 0 125 -23q-1 44 -29.5 64t-81.5 20q-38 0 -81.5 -9t-77.5 -24l-21 109q90 44 194 44q125 0 189.5 -46.5zM322.5 134q29.5 22 33.5 57
q-18 11 -47 18.5t-53 7.5q-33 0 -53 -13.5t-20 -39.5q0 -25 20 -38.5t50 -13.5q40 0 69.5 22zM183 573.5q-39 34.5 -39 88.5q0 55 39 89.5t100 34.5q62 0 101 -34.5t39 -89.5q0 -54 -39 -88.5t-101 -34.5q-61 0 -100 34.5zM313.5 633q11.5 11 11.5 29t-11.5 29.5t-30.5 11.5
t-30.5 -11.5t-11.5 -29.5q0 -17 11.5 -28.5t30.5 -11.5t30.5 11z" />
    <glyph glyph-name="atilde.ss04" horiz-adv-x="565" 
d="M447.5 458.5q64.5 -46.5 64.5 -148.5v-310h-136l-10 60q-57 -69 -157 -69q-80 0 -131 44t-51 121q0 78 56.5 123t146.5 45q76 0 125 -23q-1 44 -29.5 64t-81.5 20q-38 0 -81.5 -9t-77.5 -24l-21 109q90 44 194 44q125 0 189.5 -46.5zM322.5 134q29.5 22 33.5 57
q-18 11 -47 18.5t-53 7.5q-33 0 -53 -13.5t-20 -39.5q0 -25 20 -38.5t50 -13.5q40 0 69.5 22zM278 577q-31 17 -49 17q-30 0 -44 -33l-81 55q15 43 45.5 67t68.5 24q34 0 68 -20q24 -17 50 -17q30 0 44 34l80 -52q-14 -48 -42.5 -72t-66.5 -24q-35 0 -73 21z" />
    <glyph glyph-name="ae.ss04" horiz-adv-x="885" 
d="M796 439.5q61 -64.5 61 -172.5q0 -32 -6 -67h-337q8 -38 41 -60.5t81 -22.5q30 0 60 10.5t54 29.5l82 -88q-39 -37 -91.5 -57.5t-107.5 -20.5q-132 0 -200 83q-36 -39 -91 -61t-119 -22q-91 0 -143.5 45t-52.5 121q0 77 55 122t148 45q35 0 69.5 -7t59.5 -20v1
q0 88 -123 88q-71 0 -151 -34l-21 110q48 22 92 32.5t93 10.5q71 0 121 -23t71 -65q26 40 76.5 63.5t111.5 23.5q106 0 167 -64.5zM545.5 357.5q-27.5 -24.5 -32.5 -68.5h197q1 43 -24 68t-68 25q-45 0 -72.5 -24.5zM325.5 134.5q29.5 22.5 34.5 56.5q-22 12 -49.5 19
t-51.5 7q-36 0 -56 -14t-20 -39t19.5 -38.5t52.5 -13.5q41 0 70.5 22.5z" />
    <glyph glyph-name="aeacute.ss04" horiz-adv-x="885" 
d="M796 439.5q61 -64.5 61 -172.5q0 -32 -6 -67h-337q8 -38 41 -60.5t81 -22.5q30 0 60 10.5t54 29.5l82 -88q-39 -37 -91.5 -57.5t-107.5 -20.5q-132 0 -200 83q-36 -39 -91 -61t-119 -22q-91 0 -143.5 45t-52.5 121q0 77 55 122t148 45q35 0 69.5 -7t59.5 -20v1
q0 88 -123 88q-71 0 -151 -34l-21 110q48 22 92 32.5t93 10.5q71 0 121 -23t71 -65q26 40 76.5 63.5t111.5 23.5q106 0 167 -64.5zM545.5 357.5q-27.5 -24.5 -32.5 -68.5h197q1 43 -24 68t-68 25q-45 0 -72.5 -24.5zM325.5 134.5q29.5 22.5 34.5 56.5q-22 12 -49.5 19
t-51.5 7q-36 0 -56 -14t-20 -39t19.5 -38.5t52.5 -13.5q41 0 70.5 22.5zM436 700h169l-105 -148h-131z" />
    <glyph glyph-name="g.ss04" horiz-adv-x="635" 
d="M576 494v-493q0 -119 -74 -182.5t-203 -63.5q-132 0 -236 66l57 112q83 -47 163 -47q70 0 104.5 29.5t34.5 92.5v49q-28 -30 -68 -45.5t-87 -15.5q-69 0 -122.5 32.5t-83.5 90t-30 131.5t30 132t83.5 90t122.5 32q50 0 92 -17.5t72 -50.5l10 58h135zM389.5 159
q32.5 34 32.5 89t-32.5 89.5t-85.5 34.5q-52 0 -84.5 -34.5t-32.5 -89.5t32.5 -89t84.5 -34q53 0 85.5 34z" />
    <glyph glyph-name="gbreve.ss04" horiz-adv-x="635" 
d="M576 494v-493q0 -119 -74 -182.5t-203 -63.5q-132 0 -236 66l57 112q83 -47 163 -47q70 0 104.5 29.5t34.5 92.5v49q-28 -30 -68 -45.5t-87 -15.5q-69 0 -122.5 32.5t-83.5 90t-30 131.5t30 132t83.5 90t122.5 32q50 0 92 -17.5t72 -50.5l10 58h135zM389.5 159
q32.5 34 32.5 89t-32.5 89.5t-85.5 34.5q-52 0 -84.5 -34.5t-32.5 -89.5t32.5 -89t84.5 -34q53 0 85.5 34zM179 590.5q-44 39.5 -44 109.5h118q0 -22 13 -35t34 -13q22 0 35 13t13 35h117q0 -70 -44 -109.5t-121 -39.5t-121 39.5z" />
    <glyph glyph-name="gcircumflex.ss04" horiz-adv-x="635" 
d="M576 494v-493q0 -119 -74 -182.5t-203 -63.5q-132 0 -236 66l57 112q83 -47 163 -47q70 0 104.5 29.5t34.5 92.5v49q-28 -30 -68 -45.5t-87 -15.5q-69 0 -122.5 32.5t-83.5 90t-30 131.5t30 132t83.5 90t122.5 32q50 0 92 -17.5t72 -50.5l10 58h135zM389.5 159
q32.5 34 32.5 89t-32.5 89.5t-85.5 34.5q-52 0 -84.5 -34.5t-32.5 -89.5t32.5 -89t84.5 -34q53 0 85.5 34zM498 550h-141l-58 53l-56 -53h-141l149 150h97z" />
    <glyph glyph-name="uni0123.ss04" horiz-adv-x="635" 
d="M232.5 566.5q-21.5 21.5 -21.5 56.5q0 29 12 62t46 104h73l-23 -103q22 -7 34.5 -24.5t12.5 -42.5q0 -32 -21.5 -53t-55.5 -21q-35 0 -56.5 21.5zM576 494v-493q0 -119 -74 -182.5t-203 -63.5q-132 0 -236 66l57 112q83 -47 163 -47q70 0 104.5 29.5t34.5 92.5v49
q-28 -30 -68 -45.5t-87 -15.5q-69 0 -122.5 32.5t-83.5 90t-30 131.5t30 132t83.5 90t122.5 32q50 0 92 -17.5t72 -50.5l10 58h135zM389.5 159q32.5 34 32.5 89t-32.5 89.5t-85.5 34.5q-52 0 -84.5 -34.5t-32.5 -89.5t32.5 -89t84.5 -34q53 0 85.5 34z" />
    <glyph glyph-name="gdotaccent.ss04" horiz-adv-x="635" 
d="M576 494v-493q0 -119 -74 -182.5t-203 -63.5q-132 0 -236 66l57 112q83 -47 163 -47q70 0 104.5 29.5t34.5 92.5v49q-28 -30 -68 -45.5t-87 -15.5q-69 0 -122.5 32.5t-83.5 90t-30 131.5t30 132t83.5 90t122.5 32q50 0 92 -17.5t72 -50.5l10 58h135zM389.5 159
q32.5 34 32.5 89t-32.5 89.5t-85.5 34.5q-52 0 -84.5 -34.5t-32.5 -89.5t32.5 -89t84.5 -34q53 0 85.5 34zM239 576q-24 22 -24 56t24 56t61 22t60.5 -22t23.5 -56t-23.5 -56t-60.5 -22t-61 22z" />
    <glyph glyph-name="y.ss04" 
d="M555 494v-499q0 -117 -68 -178.5t-195 -61.5q-68 0 -125 15.5t-107 50.5l59 112q84 -47 161 -47q61 0 93 28t32 83v65q-55 -65 -153 -65q-97 0 -148 61t-51 173v263h157v-264q0 -47 24 -75t65 -28q44 0 71.5 31.5t27.5 82.5v253h157z" />
    <glyph glyph-name="yacute.ss04" 
d="M555 494v-499q0 -117 -68 -178.5t-195 -61.5q-68 0 -125 15.5t-107 50.5l59 112q84 -47 161 -47q61 0 93 28t32 83v65q-55 -65 -153 -65q-97 0 -148 61t-51 173v263h157v-264q0 -47 24 -75t65 -28q44 0 71.5 31.5t27.5 82.5v253h157zM295 700h169l-105 -148h-131z" />
    <glyph glyph-name="ycircumflex.ss04" 
d="M555 494v-499q0 -117 -68 -178.5t-195 -61.5q-68 0 -125 15.5t-107 50.5l59 112q84 -47 161 -47q61 0 93 28t32 83v65q-55 -65 -153 -65q-97 0 -148 61t-51 173v263h157v-264q0 -47 24 -75t65 -28q44 0 71.5 31.5t27.5 82.5v253h157zM503 550h-141l-58 53l-56 -53h-141
l149 150h97z" />
    <glyph glyph-name="ydieresis.ss04" 
d="M555 494v-499q0 -117 -68 -178.5t-195 -61.5q-68 0 -125 15.5t-107 50.5l59 112q84 -47 161 -47q61 0 93 28t32 83v65q-55 -65 -153 -65q-97 0 -148 61t-51 173v263h157v-264q0 -47 24 -75t65 -28q44 0 71.5 31.5t27.5 82.5v253h157zM136.5 574.5q-23.5 20.5 -23.5 57.5
q0 36 24 56.5t56 20.5q33 0 56.5 -20.5t23.5 -56.5q0 -37 -23.5 -57.5t-56.5 -20.5t-56.5 20.5zM358.5 574.5q-23.5 20.5 -23.5 57.5q0 36 24 56.5t56 20.5q33 0 57 -20.5t24 -56.5q0 -37 -24 -57.5t-57 -20.5t-56.5 20.5z" />
    <glyph glyph-name="ygrave.ss04" 
d="M555 494v-499q0 -117 -68 -178.5t-195 -61.5q-68 0 -125 15.5t-107 50.5l59 112q84 -47 161 -47q61 0 93 28t32 83v65q-55 -65 -153 -65q-97 0 -148 61t-51 173v263h157v-264q0 -47 24 -75t65 -28q44 0 71.5 31.5t27.5 82.5v253h157zM250 552l-105 148h169l67 -148h-131z
" />
    <glyph glyph-name="f_f.ss02" horiz-adv-x="791" 
d="M798 601h-157v-107h130v-126h-130v-368h-157v368h-219v-368h-157v368h-87v126h87v205h297v-130h-140v-77h219v242h314v-133z" />
    <glyph glyph-name="fi.ss02" horiz-adv-x="689" 
d="M485.5 567q-25.5 24 -25.5 61q0 38 26 62t66 24t66 -24t26 -62q0 -37 -25.5 -61t-66.5 -24t-66.5 24zM630 494v-494h-157v368h-208v-368h-157v368h-87v126h87v218h297v-131h-140v-87h365z" />
    <glyph glyph-name="fl.ss02" horiz-adv-x="710" 
d="M627 133h80v-133h-237v582h-205v-90h122v-124h-122v-368h-157v368h-87v126h87v218h519v-579z" />
    <glyph glyph-name="uni0414.loclBGR" horiz-adv-x="866" 
d="M754 148h90v-292h-155v144h-512v-144h-155v292h89l237 552h170zM431 533l-154 -392h308z" />
    <glyph glyph-name="uni041B.loclBGR" horiz-adv-x="760" 
d="M468 700l300 -700h-181l-207 520l-70 -176l-138 -344h-179l300 700h175z" />
    <glyph glyph-name="uni0424.loclBGR" horiz-adv-x="963" 
d="M831 96q-96 -93 -268 -100v-94h-163v94q-172 7 -268 100t-96 254t96 254t268 100v88h163v-88q172 -7 268 -100t96 -254t-96 -254zM248.5 192q54.5 -56 158.5 -60v437q-104 -5 -158.5 -60.5t-54.5 -158.5q0 -102 54.5 -158zM714.5 192q54.5 56 54.5 158q0 103 -54.5 158.5
t-158.5 60.5v-437q104 4 158.5 60z" />
    <glyph glyph-name="uni0414.ss02" horiz-adv-x="847" 
d="M715 148h111v-292h-155v144h-504v-144h-155v292h109l74 552h520v-552zM552 137v413h-210l-55 -413h265z" />
    <glyph glyph-name="uni041B.ss02" horiz-adv-x="773" 
d="M169 700h527v-700h-163v550h-216l-63 -550h-236v144h91z" />
    <glyph glyph-name="uni0427.ss02" horiz-adv-x="727" 
d="M651 700v-700h-164v215h-166q-128 0 -196 75t-68 214v196h163v-185q0 -155 133 -155h134v340h164z" />
    <glyph glyph-name="uni0409.ss02" horiz-adv-x="1161" 
d="M1041.5 424q70.5 -62 70.5 -177q0 -118 -72 -182.5t-203 -64.5h-316v550h-204l-63 -550h-236v144h91l60 556h516v-214h156q130 0 200.5 -62zM917.5 171q30.5 26 30.5 73t-30 72.5t-88 25.5h-147v-197h147q57 0 87.5 26z" />
    <glyph glyph-name="uni0414.ss03" horiz-adv-x="866" 
d="M754 148h90v-292h-155v144h-512v-144h-155v292h89l237 552h170zM431 533l-154 -392h308z" />
    <glyph glyph-name="uni041B.ss03" horiz-adv-x="760" 
d="M468 700l300 -700h-181l-207 520l-70 -176l-138 -344h-179l300 700h175z" />
    <glyph glyph-name="uni0424.ss03" horiz-adv-x="963" 
d="M831 96q-96 -93 -268 -100v-94h-163v94q-172 7 -268 100t-96 254t96 254t268 100v88h163v-88q172 -7 268 -100t96 -254t-96 -254zM248.5 192q54.5 -56 158.5 -60v437q-104 -5 -158.5 -60.5t-54.5 -158.5q0 -102 54.5 -158zM714.5 192q54.5 56 54.5 158q0 103 -54.5 158.5
t-158.5 60.5v-437q104 4 158.5 60z" />
    <glyph glyph-name="uni0414.ss04" horiz-adv-x="866" 
d="M754 148h90v-292h-155v144h-512v-144h-155v292h89l237 552h170zM431 533l-154 -392h308z" />
    <glyph glyph-name="uni041B.ss04" horiz-adv-x="760" 
d="M468 700l300 -700h-181l-207 520l-70 -176l-138 -344h-179l300 700h175z" />
    <glyph glyph-name="uni0424.ss04" horiz-adv-x="963" 
d="M831 96q-96 -93 -268 -100v-94h-163v94q-172 7 -268 100t-96 254t96 254t268 100v88h163v-88q172 -7 268 -100t96 -254t-96 -254zM248.5 192q54.5 -56 158.5 -60v437q-104 -5 -158.5 -60.5t-54.5 -158.5q0 -102 54.5 -158zM714.5 192q54.5 56 54.5 158q0 103 -54.5 158.5
t-158.5 60.5v-437q104 4 158.5 60z" />
    <glyph glyph-name="uni0432.loclBGR" horiz-adv-x="597" 
d="M537.5 315.5q25.5 -43.5 25.5 -101.5q0 -67 -32.5 -118t-91 -79.5t-133.5 -28.5q-124 0 -193 72.5t-69 202.5v189q0 80 32.5 140t92.5 92.5t140 32.5q69 0 121.5 -24t81.5 -67t29 -99q0 -46 -20 -82t-57 -60q48 -26 73.5 -69.5zM228 558q-28 -32 -28 -88v-60l97 20
q46 10 69.5 32.5t23.5 57.5q0 32 -23 51t-61 19q-50 0 -78 -32zM379 144.5q28 27.5 28 73.5q0 43 -23 67t-67 24q-21 0 -40 -4l-77 -16v-50q0 -58 28 -90t78 -32q45 0 73 27.5z" />
    <glyph glyph-name="uni0433.loclBGR" horiz-adv-x="506" 
d="M86 29.5q-60 42.5 -60 116.5q0 139 207 159q41 4 59 14t18 28q0 16 -16 25t-47 9q-34 0 -73 -8.5t-76 -24.5l-54 107q43 23 94 36.5t105 13.5q102 0 161.5 -41.5t59.5 -113.5q0 -66 -50 -105.5t-148 -48.5q-47 -4 -66.5 -15t-19.5 -29q0 -19 17 -28.5t49 -9.5
q45 0 92.5 13t85.5 35l60 -107q-45 -32 -107 -50t-128 -18q-103 0 -163 42.5z" />
    <glyph glyph-name="uni0434.loclBGR" horiz-adv-x="635" 
d="M576 494v-493q0 -119 -74 -182.5t-203 -63.5q-132 0 -236 66l57 112q83 -47 163 -47q70 0 104.5 29.5t34.5 92.5v49q-28 -30 -68 -45.5t-87 -15.5q-69 0 -122.5 32.5t-83.5 90t-30 131.5t30 132t83.5 90t122.5 32q50 0 92 -17.5t72 -50.5l10 58h135zM389.5 159
q32.5 34 32.5 89t-32.5 89.5t-85.5 34.5q-52 0 -84.5 -34.5t-32.5 -89.5t32.5 -89t84.5 -34q53 0 85.5 34z" />
    <glyph glyph-name="uni0436.loclBGR" horiz-adv-x="795" 
d="M804 0h-188l-143 201v-201h-151v200l-149 -200h-182l190 251l-161 243h174l128 -192v398h151v-398l127 192h174l-162 -235z" />
    <glyph glyph-name="uni0437.loclBGR" horiz-adv-x="543" 
d="M484.5 83q26.5 -43 26.5 -95q0 -64 -33 -114t-92.5 -77.5t-137.5 -27.5q-68 0 -128.5 20t-100.5 56l69 108q37 -25 73.5 -37t76.5 -12q54 0 85.5 25t31.5 68q0 41 -25.5 63.5t-71.5 22.5h-117v131h108q42 0 66 21.5t24 60.5q0 38 -26.5 59.5t-73.5 21.5q-36 0 -70 -11.5
t-72 -37.5l-62 102q102 80 228 80q68 0 120 -24.5t80.5 -69.5t28.5 -104q0 -52 -21.5 -94t-60.5 -66q48 -26 74.5 -69z" />
    <glyph glyph-name="uni0438.loclBGR" 
d="M555 494v-494h-136l-10 57q-28 -33 -68.5 -50.5t-88.5 -17.5q-91 0 -145 60t-54 166v279h157v-270q0 -48 23.5 -75t64.5 -27q45 0 72.5 31.5t27.5 81.5v259h157z" />
    <glyph glyph-name="uni0439.loclBGR" 
d="M555 494v-494h-136l-10 57q-28 -33 -68.5 -50.5t-88.5 -17.5q-91 0 -145 60t-54 166v279h157v-270q0 -48 23.5 -75t64.5 -27q45 0 72.5 31.5t27.5 81.5v259h157zM196 575.5q-41 35.5 -54 109.5l96 28q7 -35 22.5 -50t44.5 -15t44.5 15t22.5 50l96 -28q-14 -74 -55 -109.5
t-108 -35.5q-68 0 -109 35.5z" />
    <glyph glyph-name="uni045D.loclBGR" 
d="M555 494v-494h-136l-10 57q-28 -33 -68.5 -50.5t-88.5 -17.5q-91 0 -145 60t-54 166v279h157v-270q0 -48 23.5 -75t64.5 -27q45 0 72.5 31.5t27.5 81.5v259h157zM250 552l-105 148h169l67 -148h-131z" />
    <glyph glyph-name="uni043A.loclBGR" horiz-adv-x="551" 
d="M560 0h-194l-151 196v-196h-156v700h156v-393l137 187h179l-178 -234z" />
    <glyph glyph-name="uni043B.loclBGR" horiz-adv-x="576" 
d="M368 494l205 -494h-169l-63 164l-54 162l-53 -162l-64 -164h-168l205 494h161z" />
    <glyph glyph-name="uni043F.loclBGR" horiz-adv-x="618" 
d="M510.5 445q54.5 -60 54.5 -166v-279h-157v270q0 48 -24 75t-66 27q-46 0 -74 -31t-28 -81v-260h-157v494h136l10 -58q29 33 69.5 51t89.5 18q92 0 146.5 -60z" />
    <glyph glyph-name="uni0442.loclBGR" horiz-adv-x="916" 
d="M809 450q54 -55 54 -151v-299h-157v279q0 44 -20.5 68.5t-57.5 24.5q-41 0 -65 -28t-24 -74v-270h-156v279q0 44 -20 68.5t-57 24.5q-41 0 -65.5 -28t-24.5 -74v-270h-157v494h136l9 -55q26 32 62.5 49t78.5 17q48 0 86 -20.5t60 -56.5q60 77 170 77q94 0 148 -55z" />
    <glyph glyph-name="uni0446.loclBGR" horiz-adv-x="656" 
d="M563 155.5q8 -19.5 27 -27t54 -7.5v-245h-140v143q-24 8 -39.5 22.5t-23.5 37.5q-34 -45 -82.5 -67.5t-105.5 -22.5q-95 0 -147.5 60.5t-52.5 171.5v273h157v-270q0 -48 23 -75t62 -27q46 0 74.5 31t28.5 81v260h157v-281q0 -38 8 -57.5z" />
    <glyph glyph-name="uni0448.loclBGR" horiz-adv-x="916" 
d="M857 494v-494h-136l-9 55q-26 -32 -62.5 -49t-78.5 -17q-48 0 -86 20.5t-60 56.5q-60 -77 -170 -77q-94 0 -148 55t-54 151v299h157v-279q0 -44 20.5 -68.5t57.5 -24.5q40 0 64.5 28t24.5 74v270h156v-279q0 -44 20 -68.5t57 -24.5q41 0 65.5 28t24.5 74v270h157z" />
    <glyph glyph-name="uni0449.loclBGR" horiz-adv-x="958" 
d="M865.5 155.5q8.5 -19.5 27 -27t53.5 -7.5v-245h-140v143q-47 13 -62 57q-30 -42 -74.5 -64.5t-95.5 -22.5q-50 0 -89 21t-61 59q-57 -80 -169 -80q-94 0 -148 55t-54 151v299h157v-279q0 -44 20.5 -68.5t57.5 -24.5q40 0 64.5 28t24.5 74v270h156v-279q0 -44 20 -68.5
t57 -24.5q40 0 65 26.5t25 69.5v276h157v-280q0 -39 8.5 -58.5z" />
    <glyph glyph-name="uni044C.loclBGR" horiz-adv-x="548" 
d="M466 342.5q54 -53.5 54 -146.5q0 -100 -63 -156.5t-173 -56.5q-107 0 -169 61t-62 168v282h156v-129q48 31 112 31q91 0 145 -53.5zM348.5 133.5q23.5 23.5 23.5 60.5t-23.5 60t-61.5 23t-61.5 -23t-23.5 -60q0 -38 23.5 -61t61.5 -23t61.5 23.5z" />
    <glyph glyph-name="uni044A.loclBGR" horiz-adv-x="624" 
d="M541 342.5q54 -53.5 54 -146.5q0 -100 -62.5 -156.5t-173.5 -56.5q-107 0 -169 61t-62 168v159h-118v123h274v-129q48 31 112 31q91 0 145 -53.5zM423.5 133.5q23.5 23.5 23.5 60.5t-23.5 60t-61.5 23t-61.5 -23t-23.5 -60q0 -38 23.5 -61t61.5 -23t61.5 23.5z" />
    <glyph glyph-name="uni044E.loclBGR" horiz-adv-x="844" 
d="M688.5 472.5q60.5 -32.5 93 -90.5t32.5 -135t-32.5 -135t-93 -90.5t-140.5 -32.5q-101 0 -169 53.5t-85 144.5h-79v-187h-156v700h156v-382h81q20 86 87.5 136.5t163.5 50.5q81 0 141.5 -32.5zM628 157q30 35 30 90t-30 90t-80 35q-49 0 -80 -35.5t-31 -89.5t31 -89.5
t80 -35.5q50 0 80 35z" />
    <glyph glyph-name="uni0430.ss01" horiz-adv-x="565" 
d="M447.5 458.5q64.5 -46.5 64.5 -148.5v-310h-136l-10 60q-57 -69 -157 -69q-80 0 -131 44t-51 121q0 78 56.5 123t146.5 45q76 0 125 -23q-1 44 -29.5 64t-81.5 20q-38 0 -81.5 -9t-77.5 -24l-21 109q90 44 194 44q125 0 189.5 -46.5zM322.5 134q29.5 22 33.5 57
q-18 11 -47 18.5t-53 7.5q-33 0 -53 -13.5t-20 -39.5q0 -25 20 -38.5t50 -13.5q40 0 69.5 22z" />
    <glyph glyph-name="uni0443.ss01" 
d="M555 494v-499q0 -117 -68 -178.5t-195 -61.5q-68 0 -125 15.5t-107 50.5l59 112q84 -47 161 -47q61 0 93 28t32 83v65q-55 -65 -153 -65q-97 0 -148 61t-51 173v263h157v-264q0 -47 24 -75t65 -28q44 0 71.5 31.5t27.5 82.5v253h157z" />
    <glyph glyph-name="uni045E.ss01" 
d="M555 494v-499q0 -117 -68 -178.5t-195 -61.5q-68 0 -125 15.5t-107 50.5l59 112q84 -47 161 -47q61 0 93 28t32 83v65q-55 -65 -153 -65q-97 0 -148 61t-51 173v263h157v-264q0 -47 24 -75t65 -28q44 0 71.5 31.5t27.5 82.5v253h157zM196 575.5q-41 35.5 -54 109.5l96 28
q7 -35 22.5 -50t44.5 -15t44.5 15t22.5 50l96 -28q-14 -74 -55 -109.5t-108 -35.5q-68 0 -109 35.5z" />
    <glyph glyph-name="uni04D5.ss01" horiz-adv-x="885" 
d="M796 439.5q61 -64.5 61 -172.5q0 -32 -6 -67h-337q8 -38 41 -60.5t81 -22.5q30 0 60 10.5t54 29.5l82 -88q-39 -37 -91.5 -57.5t-107.5 -20.5q-132 0 -200 83q-36 -39 -91 -61t-119 -22q-91 0 -143.5 45t-52.5 121q0 77 55 122t148 45q35 0 69.5 -7t59.5 -20v1
q0 88 -123 88q-71 0 -151 -34l-21 110q48 22 92 32.5t93 10.5q71 0 121 -23t71 -65q26 40 76.5 63.5t111.5 23.5q106 0 167 -64.5zM545.5 357.5q-27.5 -24.5 -32.5 -68.5h197q1 43 -24 68t-68 25q-45 0 -72.5 -24.5zM325.5 134.5q29.5 22.5 34.5 56.5q-22 12 -49.5 19
t-51.5 7q-36 0 -56 -14t-20 -39t19.5 -38.5t52.5 -13.5q41 0 70.5 22.5z" />
    <glyph glyph-name="uni0431.ss02" horiz-adv-x="632" 
d="M491.5 448.5q52.5 -29.5 81 -82.5t28.5 -122q0 -78 -33 -135.5t-94 -88.5t-143 -31q-132 0 -202.5 78t-70.5 232v381h358v66h142v-196h-348v-132q27 29 67.5 44.5t91.5 15.5q70 0 122.5 -29.5zM416.5 151q30.5 32 30.5 86t-30.5 85.5t-83.5 31.5q-54 0 -85 -31.5
t-31 -85.5t31 -86t85 -32q53 0 83.5 32z" />
    <glyph glyph-name="uni0434.ss02" horiz-adv-x="627" 
d="M541 135h72v-259h-148v124h-303v-124h-149v259h74l41 359h413v-359zM386 131v234h-120l-26 -234h146z" />
    <glyph glyph-name="uni043B.ss02" horiz-adv-x="608" 
d="M129 494h420v-494h-156v359h-124l-32 -359h-215v130h72z" />
    <glyph glyph-name="uni0443.ss02" horiz-adv-x="611" 
d="M552 494v-708h-434v136h280v152q-55 -63 -151 -63q-90 0 -142 61t-52 166v256h156v-249q0 -47 24 -74.5t66 -27.5q43 0 70 31.5t27 81.5v238h156z" />
    <glyph glyph-name="uni045E.ss02" horiz-adv-x="611" 
d="M191 575.5q-41 35.5 -54 109.5l96 28q7 -35 22.5 -50t44.5 -15t44.5 15t22.5 50l96 -28q-14 -74 -55 -109.5t-108 -35.5q-68 0 -109 35.5zM552 494v-708h-434v136h280v152q-55 -63 -151 -63q-90 0 -142 61t-52 166v256h156v-249q0 -47 24 -74.5t66 -27.5q43 0 70 31.5
t27 81.5v238h156z" />
    <glyph glyph-name="uni0447.ss02" horiz-adv-x="571" 
d="M512 494v-494h-152v144h-113q-97 0 -153 58t-56 158v134h153v-118q0 -51 20.5 -75.5t63.5 -24.5h85v218h152z" />
    <glyph glyph-name="uni0459.ss02" horiz-adv-x="873" 
d="M794.5 309.5q50.5 -48.5 50.5 -129.5q0 -86 -49.5 -133t-138.5 -47h-267v359h-121l-32 -359h-215v130h72l35 364h414v-136h114q87 0 137.5 -48.5zM671.5 137.5q16.5 14.5 16.5 42.5q0 26 -16 40.5t-46 14.5h-87v-112h87q29 0 45.5 14.5z" />
    <glyph glyph-name="uni0434.loclBGR.ss02" horiz-adv-x="636" 
d="M577 494v-708h-458v133h303v155q-29 -31 -69.5 -47.5t-88.5 -16.5q-68 0 -121 32t-82.5 88t-29.5 127t29.5 127t82.5 88t121 32q54 0 99 -20t72 -55l2 65h140zM389 172q33 33 33 83q0 51 -33 84t-85 33q-51 0 -84 -33t-33 -84q0 -50 33 -83t84 -33q52 0 85 33z" />
    <glyph glyph-name="uni0437.loclBGR.ss02" horiz-adv-x="532" 
d="M467.5 80.5q25.5 -46.5 25.5 -111.5l-1 -183h-456v133h301v62q0 102 -95 102h-117v131h108q42 0 66 21.5t24 59.5q0 39 -26.5 60.5t-73.5 21.5q-36 0 -70 -11.5t-72 -37.5l-62 102q100 80 228 80q68 0 120 -24.5t80.5 -69.5t28.5 -104q0 -52 -21.5 -94t-60.5 -66
q48 -25 73.5 -71.5z" />
    <glyph glyph-name="uni043F.loclBGR.ss02" 
d="M59 494h496v-494h-157v359h-182v-359h-157v494z" />
    </font>
</defs>
</svg>
